Обитель зла: Последняя главаResident Evil: The Final Chapter«The beginning of the end»

Страна: США, Франция, Германия, Канада, Япония, Австралия, ЮАР, Великобритания
Жанр: Ужасы, фантастика, боевик
Год выпуска: 2016
Продолжительность: 01:46:33
Перевод: Профессиональный (дублированный) BD CEE
Перевод 2: Авторский (одноголосый закадровый) Ю.Живов
Субтитры: русские форсированные,русские полные,английские
Оригинальная аудиодорожка: английский
Режиссер: Пол У. С. Андерсон / Paul W.S. Anderson
В ролях: Милла Йовович (Alice / Alicia Marcus), Иэн Глен (Dr. Isaacs), Эли Лартер (Claire Redfield), Шон Робертс (Wesker), Оуэн Мэкен (Doc), Фрайзер Джеймс (Razor), Руби Роуз (Abigail), Уильям Леви (Christian), Рола (Cobalt), Эвер Андерсон (Young Alicia / Red Queen)
Описание: Действия фильма разворачиваются с того момента, на котором закончилась предыдущая часть. После того как Вескер предал Элис в Вашингтоне, конец истории человечества стал еще ближе. Элис — последняя надежда на спасение мира. Она должна вернуться к точке отсчета, туда, где все и началось — город Раккун-Сити, где корпорация «Амбрелла» готовится к финальной атаке по тем, кому удалось выжить.
В гонке со временем Элис вооружится до зубов и объединится с друзьями и теми, кого не ожидала увидеть в роли своих союзников. Вместе они будут биться против армии мертвецов и новых чудовищных мутантов. Находясь под угрозой потери своих способностей и готовясь к неминуемой атаке корпорации, Элис столкнется с еще более трудными проблемами, а человечество тем временем будет находиться на грани гибели.
Доп. информация:
Релиз группы:
Сохранены оригинальные главы как на Bluray
Качество видео: BDRip-AVC | Resident Evil: The Final Chapter (2016) 1080p BD-Remux_HD Club |
Формат видео: MKV
Видео: 1152x480 (2:40:1), 23,976 fps, 3469 Кbps, 0.262 bit/pixe
Аудио: 48 kHz, AC3 Dolby Digital, 3/2 (L,C,R,l,r) + LFE ch, ~448.00 kbps avg DUB
Аудио 2: 48 kHz, AC3 Dolby Digital, 3/2 (L,C,R,l,r) + LFE ch, ~448.00 kbps avg AVO
Аудио 3: 48 kHz, AC3 Dolby Digital, 3/2 (L,C,R,l,r) + LFE ch, ~448.00 kbps avg ENG
Формат субтитров: softsub (SRT)
Доп. информация о субтитрах: отключаемые

Знаете ли Вы что

• Считается, что это последняя часть франшизы "Обитель зла", однако всё будет зависеть от кассовых сборов в США и за рубежом.
• Изначально планировалось начать съёмки осенью 2013 года и выпустить фильм в прокат 12 сентября 2014 года, но премьера фильма была перенесена на 2016 год из-за беременности исполнительницы роли главной героини Миллы Йовович.
• Утверждают, что после выхода в прокат последней части франшизы "Обитель зла" зрители увидят телесериал, работа над которым уже идёт.
• Эли Лартер снова сыграет роль Клэр Рэдфилд. В последний раз этот персонаж фигурировал в фильме Пола У.С. Андерсона "Обитель зла 4: Жизнь после смерти 3D" (2010).
• Исполнительница роли Джилл Валентайн актриса Сиенна Гиллори написала в "твиттере", что с предложением сняться в последней части франшизы к ней никто не обращался. После этого Гиллори поблагодарила за поддержку всех поклонников, которым она понравилась в роли Валентайн.
• К разочарованию множества поклонников, в фильме "Обитель зла 6" (2017) не будет некоторых персонажей из прошлых частей франшизы - таких как Леон Скотт Кеннеди, Джилл Валентайн, Крис Редфилд и Ада Вонг, однако решение обойтись без них было сугубо деловым. Иными словами, авторы фильма решили ввести новых привлекательных актёров в надежде расширить зрительскую аудиторию.
• Актриса Ли Бинбин, исполнительница роли Ады Вонг, была вынуждена покинуть проект ещё до начала съёмок из-за участия в съёмках фильма в Китае.
• Съёмки фильма завершились 10 декабря 2015 года в пригороде Кейптауна, Южно-Африканская Республика.
• Фильм выйдет в свет через 5 лет после премьеры предыдущей части франшизы "Обитель зла", однако события в нём разворачиваются сразу же после событий, о которых идёт речь в фильме Пола У.С. Андерсона "Обитель зла: Возмездие" (2012).
• Эли Лартер подтвердила в многочисленных интервью веб-сайтам IGN, CinemaBlend и т.д., что это действительно последняя часть франшизы "Обитель зла".
• Рикардо Корнелиус был одним из членов съёмочной группы в Южно-Африканской Республике. Он стоял возле Humvee (американский армейский вездеход), поднятого на вращающуюся платформу. По всей видимости, вездеход был плохо закреплён, потому что он соскользнул с платформы как раз в ту сторону, где стоял Корнелиус, и тот оказался зажатым между машиной и стеной здания. Согласно утверждению веб-сайта Deadline, Корнелиуса немедленно доставили в ближайшую больницу, где подключили к системе поддержания жизнедеятельности, однако через несколько часов он скончался. Это был второй несчастный случай на съёмочной площадке и первый со смертельным исходом. Во время съёмок одного из трюков, каскадёр Оливия Джексон не справилась с управлением мотоцикла и врезалась в тяжёлую кинокамеру, получив серьёзную травму головы, женщина впала в кому. Оливии отняли руку вследствие полученной на съёмках травмы.
• Во франшизу вернётся доктор Айзекс, погибший в фильме Рассела Малкэйя "Обитель зла 3" (2007). Это ещё один персонаж, присутствующий только в фильмах и не имеющий отношения к играм франшизы. Впервые он появился в фильме "Обитель зла 2: Апокалипсис" (2004), придя на смену руководителю проекта "Немезис" Уильяму Биркину.
• Вставляя в фильм эпизод в канализации, его авторы отдают дань уважения "Resident Evil 2", компьютерной игре 1998 года в жанре survival horror из серии "Resident Evil".

MediaInfo

General
Unique ID : 237194926278921901734077482732658256362 (0xB27214C421ACDC258C181068A72A69EA)
Complete name : E:\Мои рипы\Обитель зла Последняя глава\Resident Evil The Final Chapter [email protected]
Format : Matroska
Format version : Version 4 / Version 2
File size : 3.66 GiB
Duration : 1h 46mn
Overall bit rate : 4 911 Kbps
Movie name : Resident Evil The Final Chapter [email protected]
Encoded date : UTC 2017-05-29 05:30:49
Writing application : mkvmerge v12.0.0 ('Trust / Lust') 64bit
Writing library : libebml v1.3.4 + libmatroska v1.4.5
DURATION : 01:45:16.226000000
NUMBER_OF_FRAMES : 818
NUMBER_OF_BYTES : 24940
_STATISTICS_WRITING_APP : mkvmerge v12.0.0 ('Trust / Lust') 64bit
_STATISTICS_WRITING_DATE_UTC : 2017-05-29 05:30:49
_STATISTICS_TAGS : BPS DURATION NUMBER_OF_FRAMES NUMBER_OF_BYTES
Attachment : Yes
Video
ID : 1
Format : AVC
Format/Info : Advanced Video Codec
Format profile : [email protected]
Format settings, CABAC : Yes
Format settings, ReFrames : 11 frames
Codec ID : V_MPEG4/ISO/AVC
Duration : 1h 46mn
Bit rate : 3 469 Kbps
Width : 1 152 pixels
Height : 480 pixels
Display aspect ratio : 2.40:1
Frame rate mode : Constant
Frame rate : 23.976 fps
Color space : YUV
Chroma subsampling : 4:2:0
Bit depth : 8 bits
Scan type : Progressive
Bits/(Pixel*Frame) : 0.262
Stream size : 2.58 GiB (71%)
Title : Resident Evil The Final Chapter [email protected]
Writing library : x264 core 148 r2762 90a61ec
Encoding settings : cabac=1 / ref=11 / deblock=1:-3:-3 / analyse=0x3:0x113 / me=umh / subme=11 / psy=1 / psy_rd=1.00:0.05 / mixed_ref=1 / me_range=48 / chroma_me=1 / trellis=2 / 8x8dct=1 / cqm=0 / deadzone=21,11 / fast_pskip=0 / chroma_qp_offset=-3 / threads=6 / lookahead_threads=6 / sliced_threads=0 / nr=0 / decimate=1 / interlaced=0 / bluray_compat=0 / constrained_intra=0 / bframes=16 / b_pyramid=2 / b_adapt=2 / b_bias=0 / direct=3 / weightb=1 / open_gop=0 / weightp=2 / keyint=240 / keyint_min=23 / scenecut=40 / intra_refresh=0 / rc_lookahead=60 / rc=crf / mbtree=0 / crf=17.2 / qcomp=0.60 / qpmin=0 / qpmax=69 / qpstep=4 / vbv_maxrate=50000 / vbv_bufsize=62500 / crf_max=0.0 / nal_hrd=none / filler=0 / ip_ratio=1.40 / pb_ratio=1.30 / aq=3:1.10
Language : English
Default : Yes
Forced : No
Color primaries : BT.709
Transfer characteristics : BT.709
Matrix coefficients : BT.709
DURATION : 01:46:40.436000000
NUMBER_OF_FRAMES : 153457
NUMBER_OF_BYTES : 2851259680
_STATISTICS_WRITING_APP : mkvmerge v12.0.0 ('Trust / Lust') 64bit
_STATISTICS_WRITING_DATE_UTC : 2017-05-29 05:30:49
_STATISTICS_TAGS : BPS DURATION NUMBER_OF_FRAMES NUMBER_OF_BYTES
Audio #1
ID : 2
Format : AC-3
Format/Info : Audio Coding 3
Mode extension : CM (complete main)
Format settings, Endianness : Big
Codec ID : A_AC3
Duration : 1h 46mn
Bit rate mode : Constant
Bit rate : 448 Kbps
Channel(s) : 6 channels
Channel positions : Front: L C R, Side: L R, LFE
Sampling rate : 48.0 KHz
Bit depth : 16 bits
Compression mode : Lossy
Stream size : 342 MiB (9%)
Title : Dub Bluray CEE
Language : Russian
Default : Yes
Forced : No
Audio #2
ID : 3
Format : AC-3
Format/Info : Audio Coding 3
Mode extension : CM (complete main)
Format settings, Endianness : Big
Codec ID : A_AC3
Duration : 1h 46mn
Bit rate mode : Constant
Bit rate : 448 Kbps
Channel(s) : 6 channels
Channel positions : Front: L C R, Side: L R, LFE
Sampling rate : 48.0 KHz
Bit depth : 16 bits
Compression mode : Lossy
Stream size : 342 MiB (9%)
Title : AVO Zivov
Language : Russian
Default : No
Forced : No
Audio #3
ID : 4
Format : AC-3
Format/Info : Audio Coding 3
Mode extension : CM (complete main)
Format settings, Endianness : Big
Codec ID : A_AC3
Duration : 1h 46mn
Bit rate mode : Constant
Bit rate : 448 Kbps
Channel(s) : 6 channels
Channel positions : Front: L C R, Side: L R, LFE
Sampling rate : 48.0 KHz
Bit depth : 16 bits
Compression mode : Lossy
Stream size : 342 MiB (9%)
Title : Eng
Language : English
Default : No
Forced : No
Text #1
ID : 5
Format : UTF-8
Codec ID : S_TEXT/UTF8
Codec ID/Info : UTF-8 Plain Text
Title : Rus forsed
Language : Russian
Default : Yes
Forced : No
Text #2
ID : 6
Format : UTF-8
Codec ID : S_TEXT/UTF8
Codec ID/Info : UTF-8 Plain Text
Title : Rus
Language : Russian
Default : No
Forced : No
Text #3
ID : 7
Format : UTF-8
Codec ID : S_TEXT/UTF8
Codec ID/Info : UTF-8 Plain Text
Title : Eng
Language : English
Default : No
Forced : No
Menu
00:00:00.000 : en:Chapter 01
00:05:39.672 : en:Chapter 02
00:11:18.177 : en:Chapter 03
00:17:00.102 : en:Chapter 04
00:22:36.146 : en:Chapter 05
00:27:21.931 : en:Chapter 06
00:33:35.888 : en:Chapter 07
00:40:43.816 : en:Chapter 08
00:46:29.328 : en:Chapter 09
00:53:11.980 : en:Chapter 10
01:03:11.871 : en:Chapter 11
01:10:41.070 : en:Chapter 12
01:15:30.776 : en:Chapter 13
01:22:51.007 : en:Chapter 14
01:28:26.092 : en:Chapter 15
01:35:00.653 : en:Chapter 16

x264 log

VIDEO ENCODING
x264 [info]: frame I:1137 Avg QP:14.73 size: 73214 PSNR Mean Y:49.80 U:53.39 V:53.19 Avg:50.62 Global:49.53
x264 [info]: frame P:46483 Avg QP:15.57 size: 32801 PSNR Mean Y:48.66 U:53.11 V:52.49 Avg:49.55 Global:48.28
x264 [info]: frame B:105837 Avg QP:17.27 size: 11748 PSNR Mean Y:47.62 U:52.57 V:52.03 Avg:48.58 Global:47.33
x264 [info]: consecutive B-frames: 7.8% 9.0% 15.0% 25.8% 16.1% 17.9% 3.9% 2.0% 1.0% 0.5% 0.3% 0.3% 0.1% 0.1% 0.0% 0.1% 0.0%
x264 [total]: encoded 153457 frames, 1.86 fps, 3563.83 kb/s

Скриншот c названием фильма

Скриншоты

Убедительная просьба пожалуйста кто скачал не бросайте раздачу!!!

If you like the topic, please click share to help develop our site.

To download the file disable ad blocking, and reload the page.

disable adblock How to disable ad blocking?

Download by magnet link 3.66 GB Download Torrent

Login using:

Similar topics



   
Current time is: 25-May 17:54 :: All times are UTC + 3