Легионер / Legionario- Страна: Испания
Жанр: Триллер, драма, военный
Год выпуска: 2016
Продолжительность: 01:23:08-Перевод: Одноголосый закадровый - BadBajo
Субтитры: нет-Режиссер: Эдуардо Эрнандес-Гарза / Eduardo H. Garza-В ролях: Рауль Техон, Диана Паласон, Луис Моттола, Марта Канальда, Марианна Ачим, Омар Асми, Артуро Де Ла Торре, Элио Годино, Дэвид Кронерт-Описание: Испанский легионер Сантос возвращается со службы в Афганистане, его сослуживцы приглашают отметить это и устраивают вечеринку. Друг Сантоса даёт ему ключи от квартиры и предлагает провести незабываемую ночь с красивой девушкой. Утром Сантос просыпается от странного звонка и обнаруживает в постели труп той самой девушки.
Сэмпл: http://multi-up.com/1155599
Качество видео: HDRip | исх. неизвестен
Формат видео: AVI
Видео: 720х304 (2.35:1), 23.976 fps, XviD build 73, 1905 Kbps, 0.363 bits/pixel
Аудио: 48 kHz, AC3 Dolby Digital, 5.1 ch, 448 Kbps
Релиз от:

MediaInfo

General
Complete name : Downloads\Legionario.2016.AVO.BaDBajo.HDRip.ExKinoRay.avi
Format : AVI
Format/Info : Audio Video Interleave
File size : 1.37 GiB
Duration : 1h 23mn
Overall bit rate : 2 362 Kbps
Writing application : VirtualDubMod 1.5.10.3 | www.virtualdub-fr.org || (build 2550/release)
Writing library : VirtualDubMod build 2550/release
Copyright : ExKinoRay
Video #0
ID : 0
Format : MPEG-4 Visual
Format profile : Advanced [email protected]
Format settings, BVOP : 1
Format settings, QPel : No
Format settings, GMC : No warppoints
Format settings, Matrix : Custom
Codec ID : XVID
Codec ID/Hint : XviD
Duration : 1h 23mn
Bit rate : 1 905 Kbps
Width : 720 pixels
Height : 304 pixels
Display aspect ratio : 2.35:1
Frame rate : 23.976 fps
Color space : YUV
Chroma subsampling : 4:2:0
Bit depth : 8 bits
Scan type : Progressive
Compression mode : Lossy
Bits/(Pixel*Frame) : 0.363
Stream size : 1.11 GiB (81%)
Writing library : XviD 73
Audio #1
ID : 1
Format : AC-3
Format/Info : Audio Coding 3
Mode extension : CM (complete main)
Format settings, Endianness : Big
Codec ID : 2000
Duration : 1h 23mn
Bit rate mode : Constant
Bit rate : 448 Kbps
Channel(s) : 6 channels
Channel positions : Front: L C R, Side: L R, LFE
Sampling rate : 48.0 KHz
Bit depth : 16 bits
Compression mode : Lossy
Stream size : 266 MiB (19%)
Alignment : Split accross interleaves
Interleave, duration : 42 ms (1.00 video frame)
Interleave, preload duration : 500 ms
Title : AVO (BadBajo)

Скриншот c названием фильма

Скриншоты


If you like the topic, please click share to help develop our site.

To download the file disable ad blocking, and reload the page.

disable adblock How to disable ad blocking?

Download by magnet link 1.37 GB Download Torrent

Login using:

Similar topics



   
Current time is: 25-May 17:54 :: All times are UTC + 3