Моя Девушка - Монстр / Colossal
Страна: Канада, Испания
Жанр: триллер, комедия, боевик
Год выпуска: 2016
Продолжительность: 01:44:46
Перевод: Профессиональный (дублированный)
Субтитры: нет
Оригинальная аудиодорожка: нет-Режиссер: Начо Вигалондо / Nacho Vigalondo-В ролях: Энн Хэтэуэй, Джейсон Судейкис, Остин Стоуэлл, Тим Блэйк Нельсон, Дэн Стивенс, Ханна Черами, Нэйтан Эллисон, Сара Сурх-Описание: В центре сюжета фильма находится молодая девушка по имени Глория. Из-за пристрастия к алкоголю и шумным вечеринкам ее жизнь летит под откос. Глорию бросает парень, и она теряет свою работу в Нью-Йорке. В итоге героиня едет в свой родной городок в надежде начать жизнь заново. Однако переезд не меняет образ жизни Глории – теперь она просто каждый вечер зависает в баре своего старого приятеля. В это время на Сеул нападает огромный монстр и вскоре Глория понимает, что эти события каким-то фантастическим образом связаны с ней....-Качество видео: WEB-DLRip | Colossal.2016.1080p.WEB-DL.Rus.HDCLUB
Формат видео: AVI
Видео: 688x288 (2.39:1), 25 fps, XviD build 73 ~855 kbps avg, 0.17 bit/pixel
Аудио: 48 kHz, MPEG Layer 3, 2 ch, ~128.00 kbps avg-Сэмпл-

MediaInfo

Format                      : AVI
Format/Info                 : Audio Video Interleave
File size                   : 744 MiB
Duration                    : 1 h 44 min
Overall bit rate            : 993 kb/s
Writing application         : VirtualDubMod 1.5.10.3 | www.virtualdub-fr.org || (build 2550/release)
Writing library             : VirtualDubMod build 2550/release
Video
ID                          : 0
Format                      : MPEG-4 Visual
Format profile              : Advanced [email protected]
Format settings, BVOP       : 1
Format settings, QPel       : No
Format settings, GMC        : No warppoints
Format settings, Matrix     : Custom
Codec ID                    : XVID
Codec ID/Hint               : XviD
Duration                    : 1 h 44 min
Bit rate                    : 856 kb/s
Width                       : 688 pixels
Height                      : 288 pixels
Display aspect ratio        : 2.40:1
Frame rate                  : 25.000 FPS
Color space                 : YUV
Chroma subsampling          : 4:2:0
Bit depth                   : 8 bits
Scan type                   : Progressive
Compression mode            : Lossy
Bits/(Pixel*Frame)          : 0.173
Stream size                 : 641 MiB (86%)
Writing library             : XviD 73
Audio
ID                          : 1
Format                      : MPEG Audio
Format version              : Version 1
Format profile              : Layer 3
Codec ID                    : 55
Codec ID/Hint               : MP3
Duration                    : 1 h 44 min
Bit rate mode               : Constant
Bit rate                    : 128 kb/s
Channel(s)                  : 2 channels
Sampling rate               : 48.0 kHz
Compression mode            : Lossy
Stream size                 : 95.9 MiB (13%)
Alignment                   : Aligned on interleaves
Interleave, duration        : 40  ms (1.00 video frame)
Interleave, preload duratio : 504  ms
Writing library             : LAME3.99r
Encoding settings           : -m s -V 4 -q 2 -lowpass 17 -b 128

Скриншоты


If you like the topic, please click share to help develop our site.

To download the file disable ad blocking, and reload the page.

disable adblock How to disable ad blocking?

Download by magnet link 744 MB Download Torrent

Login using:

Similar topics

Моя девушка – монстр / Colossal (2016) BDRip 1080p | iTunes
 7.94 GB   11 | 0   20-Jul-17 14:30   0


   
Current time is: 25-May 19:17 :: All times are UTC + 3