Инкарнация / Inkarnacija
Страна: Сербия
Жанр: боевик, триллер, мистика
Год выпуска: 2016
Продолжительность: 01:21:42
Перевод: Одноголосый закадровый (Хихикающий доктор)
Субтитры: нет
Оригинальная аудиодорожка: сербская
Режиссер: Филип Ковачевич / Filip Kovačević / Filip Kovaсeviс
В ролях: Стоян Джорджевич, Дача Видосавльевич, Стен Зендор, Тихомир Станич, Жарко Степанов
Описание: Молодой парень просыпается на площади неизвестного города снова и снова, после каждой неудачной попытки избежать четырех убийц в масках. Через бесконечную погоню он пытается восстановить свою личность и выяснить, кто и зачем его убивает.
Сэмпл: http://multi-up.com/1155537
Качество видео: WEB-DL
Формат видео: AVI
Видео: XviD, 720*400, 16:9, 25.000 fps, 2 225 Kbps
Аудио: AC3, 48.0 KHz, 192 Kbps, 2 channels (L, R), русский
Аудио 2: AC3, 48.0 KHz, 192 Kbps, 2 channels (L, R), сербский

MediaInfo

General
Complete name : ./Inkarnacija[2016].avi
Format : AVI
Format/Info : Audio Video Interleave
File size : 1.50 GiB
Duration : 1h 21mn
Overall bit rate : 2 624 Kbps
Writing application : VirtualDubMod 1.5.10.2 (build 2540/release) VirtualDubMod build 2540/release
Video
ID : 0
Format : xvid
Codec ID : xvid
Duration : 1h 21mn
Bit rate : 2 225 Kbps
Width : 720 pixels
Height : 400 pixels
Display aspect ratio : 16:9
Frame rate : 25.000 fps
Scan type : Progressive
Bits/(Pixel*Frame) : 0.309
Stream size : 1.27 GiB (85%)
Audio #1
ID : 1
Format : AC-3
Format/Info : Audio Coding 3
Mode extension : CM (complete main)
Format settings, Endianness : Big
Codec ID : 2000
Duration : 1h 21mn
Bit rate mode : Constant
Bit rate : 192 Kbps
Channel(s) : 2 channels
Channel positions : Front: L R
Sampling rate : 48.0 KHz
Frame rate : 31.250 fps (1536 spf)
Compression mode : Lossy
Stream size : 112 MiB (7%)
Alignment : Split accross interleaves
Interleave, duration : 40 ms (1.00 video frame)
Interleave, preload duration : 500 ms
Language : Undefined
Audio #2
ID : 2
Format : AC-3
Format/Info : Audio Coding 3
Mode extension : CM (complete main)
Format settings, Endianness : Big
Codec ID : 2000
Duration : 1h 21mn
Bit rate mode : Constant
Bit rate : 192 Kbps
Channel(s) : 2 channels
Channel positions : Front: L R
Sampling rate : 48.0 KHz
Frame rate : 31.250 fps (1536 spf)
Compression mode : Lossy
Stream size : 112 MiB (7%)
Alignment : Split accross interleaves
Interleave, duration : 40 ms (1.00 video frame)
Interleave, preload duration : 500 ms

Скриншот c названием фильма

Скриншоты


If you like the topic, please click share to help develop our site.

To download the file disable ad blocking, and reload the page.

disable adblock How to disable ad blocking?

Download by magnet link 1.5 GB Download Torrent

Login using:

Similar topics



   
Current time is: 25-May 17:56 :: All times are UTC + 3