Моя Девушка - Монстр / Colossal
Страна: Канада, Испания
Жанр: триллер, комедия, боевик
Год выпуска: 2016
Продолжительность: 01:44:46
Перевод: Профессиональный (дублированный) iTunes
Субтитры: нет
Режиссер: Начо Вигалондо / Nacho Vigalondo
В ролях: Энн Хэтэуэй, Джейсон Судейкис, Остин Стоуэлл, Тим Блэйк Нельсон, Дэн Стивенс, Ханна Черами, Нэйтан Эллисон, Сара Сурх
Описание: В центре сюжета фильма находится молодая девушка по имени Глория. Из-за пристрастия к алкоголю и шумным вечеринкам ее жизнь летит под откос. Глорию бросает парень, и она теряет свою работу в Нью-Йорке. В итоге героиня едет в свой родной городок в надежде начать жизнь заново. Однако переезд не меняет образ жизни Глории – теперь она просто каждый вечер зависает в баре своего старого приятеля. В это время на Сеул нападает огромный монстр и вскоре Глория понимает, что эти события каким-то фантастическим образом связаны с ней....
Рейтинг фильма : -- IMDB / 6,4
Сэмпл: http://multi-up.com/1155536
Качество видео: WEB-DLRip (Исходник Моя девушка – монстр.mkv / KinoZal)
Формат видео: AVI
Видео: XviD 73, 688x288, (2,40:1), 25,000 fps, 1487 Кбит/с, 8 бит, 0.30 bit/pixel
Аудио: Русский (АС3, 6 ch (Front: L C R, Side: L R, LFE), 48,0 KHz, 384 Kbps)

MediaInfo

Общее
Полное имя : F:\Видеофильмы\В и д е о\Моя Девушка - Монстр (триллер, комедия, боевик 2016 год).avi
Формат : AVI
Формат/Информация : Audio Video Interleave
Размер файла : 1,38 Гбайт
Продолжительность : 1 ч. 44 м.
Общий поток : 1880 Кбит/сек
Программа кодирования : VirtualDubMod 1.5.10.3 | www.virtualdub-fr.org || (build 2550/release)
Библиотека кодирования : VirtualDubMod build 2550/release
Видео
Идентификатор : 0
Формат : MPEG-4 Visual
Профиль формата : Advanced [email protected]
Параметр BVOP формата : 2
Параметр QPel формата : Нет
Параметр GMC формата : Без точки перехода
Параметр матрицы формата : Выборочная
Идентификатор кодека : XVID
Идентификатор кодека/Подсказка : XviD
Продолжительность : 1 ч. 44 м.
Битрейт : 1487 Кбит/сек
Ширина : 688 пикселей
Высота : 288 пикселей
Соотношение сторон : 2,40:1
Частота кадров : 25,000 кадров/сек
Цветовое пространство : YUV
Субдискретизация насыщенности : 4:2:0
Битовая глубина : 8 бит
Тип развёртки : Прогрессивная
Метод сжатия : С потерями
Бит/(Пиксели*Кадры) : 0.300
Размер потока : 1,09 Гбайт (79%)
Библиотека кодирования : XviD 73
Аудио
Идентификатор : 1
Формат : AC-3
Формат/Информация : Audio Coding 3
Расширение режима : CM (complete main)
Параметр Endianness формата : Big
Идентификатор кодека : 2000
Продолжительность : 1 ч. 44 м.
Вид битрейта : Постоянный
Битрейт : 384 Кбит/сек
Каналы : 6 каналов
Расположение каналов : Front: L C R, Side: L R, LFE
Частота : 48,0 КГц
Частота кадров : 31,250 кадров/сек (1536 spf)
Метод сжатия : С потерями
Размер потока : 288 Мбайт (20%)
Выравнивание : Разделение по промежуткам
Продолжительность промежутка : 40 мс. (1,00 видеокадр)
Время предзагрузки промежутка : 500 мс.

Скриншот c названием фильма

Скриншоты


If you like the topic, please click share to help develop our site.

To download the file disable ad blocking, and reload the page.

disable adblock How to disable ad blocking?

Download by magnet link 1.38 GB Download Torrent

Login using:

Similar topics

Моя девушка – монстр / Colossal (2016) BDRip 1080p | iTunes
 7.94 GB   11 | 0   20-Jul-17 14:30   0


   
Current time is: 27-May 02:38 :: All times are UTC + 3