Логан / Logan«Его время пришло»- Страна: США
Жанр: фантастика, боевик, триллер, драма
Год выпуска: 2017
Продолжительность: 02:17:23
Перевод: Профессиональный (дублированный) (iTunes)
Оригинальная аудиодорожка: английский
Субтитры: русские (форс., полные) английские (полные, SDH)
Навигация по главам: есть
Режиссер: Джеймс Мэнголд / James Mangold
В ролях: Хью Джекман (Logan), Патрик Стюарт (Charles), Дафни Кин (Laura), Бойд Холбрук (Pierce), Стивен Мерчант (Caliban), Элизабет Родригес (Gabriela), Ричард Э. Грант (Dr. Rice), Эрик Ла Салль (Will Munson), Элиз Нил (Kathryn Munson), Куинси Фаус (Nate Munson), Аль Коронел (Federale Commander), Фрэнк Гальегос (Federale Lieutenant)
Описание: В недалеком будущем уставший от жизни Логан заботится о больном профессоре Икс, который прячется неподалеку от мексиканской границы. Но Логан больше не сможет скрывать свое прошлое, когда встретится с юным мутантом, которого преследуют темные силы.- -Качество: BDRip-AVC (исходник - Logan.2017.1080p.BluRay.REMUX.AVC.DTS-HD.MA.7.1-FGT)
Формат видео: MKV
Видео: x264, 1152x482 (2.40:1) 23,976 fps, ~2118 kbps, 0.159 bit/pixel
Аудио 1: 48 kHz, AC3 Dolby Digital, 5.1 (Front: L C R, Side: L R, LFE) ch, ~384 kbps, [русский]
Аудио 2: 48 kHz, AC3 Dolby Digital, 5.1 (Front: L C R, Side: L R, LFE) ch, ~448 kbps, [английский]
Формат субтитров: softsub (SRT)-

MediaInfo | x264 log

Format : Matroska
Format version : Version 4 / Version 2
File size : 2.89 GiB
Duration : 2h 17 min
Overall bit rate : 3 010 kb/s
Movie name : Логан / Logan (2017) :: AFM ::
Encoded date : UTC 2017-05-25 20:55:41
Writing application : mkvmerge v8.3.0 ('Over the Horizon') 32bit
Writing library : libebml v1.3.1 + libmatroska v1.4.2
Video
ID : 1
Format : AVC
Format/Info : Advanced Video Codec
Format profile : [email protected]
Format settings, CABAC : Yes
Format settings, ReFrames : 12 frames
Codec ID : V_MPEG4/ISO/AVC
Duration : 2h 17 min
Bit rate : 2 118 kb/s
Width : 1 152 pixels
Height : 482 pixels
Display aspect ratio : 2.40:1
Frame rate mode : Constant
Frame rate : 23.976 (24000/1001) FPS
Color space : YUV
Chroma subsampling : 4:2:0
Bit depth : 8 bits
Scan type : Progressive
Bits/(Pixel*Frame) : 0.159
Stream size : 2.03 GiB (70%)
Title : BDRip by AFM
Writing library : x264 core 150 r2829+45 72008f5 7mod [[email protected] X86_64]
Encoding settings : cabac=1 / ref=12 / deblock=1:-2:-2 / analyse=0x3:0x113 / me=umh / subme=10 / psy=1 / fade_compensate=0.00 / psy_rd=1.00:0.00 / mixed_ref=1 / me_range=32 / chroma_me=0 / trellis=2 / 8x8dct=1 / cqm=0 / deadzone=21,11 / fast_pskip=0 / chroma_qp_offset=-2 / threads=6 / lookahead_threads=1 / sliced_threads=0 / nr=0 / decimate=1 / interlaced=0 / bluray_compat=0 / constrained_intra=0 / fgo=0 / bframes=14 / b_pyramid=2 / b_adapt=2 / b_bias=0 / direct=1 / weightb=1 / open_gop=0 / weightp=2 / keyint=240 / keyint_min=23 / scenecut=40 / intra_refresh=0 / rc_lookahead=60 / rc=crf / mbtree=0 / crf=18.3000 / qcomp=0.65 / qpmin=0:0:0 / qpmax=69:69:69 / qpstep=4 / vbv_maxrate=50000 / vbv_bufsize=62500 / crf_max=0.0 / nal_hrd=none / filler=0 / ip_ratio=1.35 / pb_ratio=1.25 / aq=3:0.85 / aq-sensitivity=10.00 / aq-factor=1.00:1.00:1.00 / aq2=0 / aq3=0 / zones=188586,197640,q=30
Language : English
Default : Yes
Forced : No
Audio #1
ID : 2
Format : AC-3
Format/Info : Audio Coding 3
Mode extension : CM (complete main)
Format settings, Endianness : Big
Codec ID : A_AC3
Duration : 2h 17 min
Bit rate mode : Constant
Bit rate : 384 kb/s
Channel(s) : 6 channels
Channel positions : Front: L C R, Side: L R, LFE
Sampling rate : 48.0 kHz
Frame rate : 31.250 FPS (1536 spf)
Compression mode : Lossy
Stream size : 377 MiB (13%)
Title : Dub, AC3 5.1 ~384 kbps
Language : Russian
Default : Yes
Forced : No
Audio #2
ID : 3
Format : AC-3
Format/Info : Audio Coding 3
Mode extension : CM (complete main)
Format settings, Endianness : Big
Codec ID : A_AC3
Duration : 2h 17 min
Bit rate mode : Constant
Bit rate : 448 kb/s
Channel(s) : 6 channels
Channel positions : Front: L C R, Side: L R, LFE
Sampling rate : 48.0 kHz
Frame rate : 31.250 FPS (1536 spf)
Compression mode : Lossy
Stream size : 440 MiB (15%)
Title : Original, AC3 5.1 ~448 kbps
Language : English
Default : No
Forced : No
Text #1
ID : 4
Format : UTF-8
Codec ID : S_TEXT/UTF8
Codec ID/Info : UTF-8 Plain Text
Title : forced
Language : Russian
Default : Yes
Forced : No
Text #2
ID : 5
Format : UTF-8
Codec ID : S_TEXT/UTF8
Codec ID/Info : UTF-8 Plain Text
Language : Russian
Default : No
Forced : No
Text #3
ID : 6
Format : UTF-8
Codec ID : S_TEXT/UTF8
Codec ID/Info : UTF-8 Plain Text
Language : English
Default : No
Forced : No
Text #4
ID : 7
Format : UTF-8
Codec ID : S_TEXT/UTF8
Codec ID/Info : UTF-8 Plain Text
Title : SDH
Language : English
Default : No
Forced : No
Menu
00:00:00.000 : en:Chapter 01
00:05:35.126 : en:Chapter 02
00:09:18.558 : en:Chapter 03
00:11:41.158 : en:Chapter 04
00:16:23.232 : en:Chapter 05
00:20:11.668 : en:Chapter 06
00:24:26.715 : en:Chapter 07
00:26:11.903 : en:Chapter 08
00:30:13.311 : en:Chapter 09
00:31:59.125 : en:Chapter 10
00:34:56.886 : en:Chapter 11
00:39:53.432 : en:Chapter 12
00:42:55.573 : en:Chapter 13
00:45:03.826 : en:Chapter 14
00:47:53.412 : en:Chapter 15
00:49:39.559 : en:Chapter 16
00:52:14.422 : en:Chapter 17
00:54:30.517 : en:Chapter 18
00:57:44.210 : en:Chapter 19
01:00:10.398 : en:Chapter 20
01:03:53.830 : en:Chapter 21
01:06:55.511 : en:Chapter 22
01:09:54.773 : en:Chapter 23
01:13:15.891 : en:Chapter 24
01:18:43.593 : en:Chapter 25
01:21:50.906 : en:Chapter 26
01:25:52.188 : en:Chapter 27
01:28:38.813 : en:Chapter 28
01:32:41.430 : en:Chapter 29
01:35:29.724 : en:Chapter 30
01:41:03.432 : en:Chapter 31
01:43:39.880 : en:Chapter 32
01:49:38.989 : en:Chapter 33
01:54:20.562 : en:Chapter 34
01:57:00.430 : en:Chapter 35
01:59:20.403 : en:Chapter 36
02:01:14.433 : en:Chapter 37
02:05:09.627 : en:Chapter 38
02:06:40.551 : en:Chapter 39
02:11:07.860 : en:Chapter 40

x264

x264 [info]: frame I:1730 Avg QP:16.18 size: 63449
x264 [info]: frame P:43393 Avg QP:17.66 size: 23106
x264 [info]: frame B:152517 Avg QP:19.79 size: 7408
x264 [info]: consecutive B-frames: 2.2% 2.2% 8.7% 24.1% 18.4% 32.7% 5.5% 2.0% 1.2% 0.7% 0.6% 0.8% 0.3% 0.2% 0.3%
x264 [info]: mb I I16..4: 4.8% 76.8% 18.4%
x264 [info]: mb P I16..4: 1.6% 13.9% 2.6% P16..4: 37.8% 24.9% 12.2% 0.0% 0.0% skip: 7.0%
x264 [info]: mb B I16..4: 0.1% 1.4% 0.3% B16..8: 37.2% 11.1% 2.2% direct: 5.3% skip:42.2% L0:43.3% L1:44.4% BI:12.3%
x264 [info]: 8x8 transform intra:76.4% inter:70.0%
x264 [info]: coded y,uvDC,uvAC intra: 82.2% 85.8% 63.4% inter: 19.4% 19.1% 5.0%
x264 [info]: i16 v,h,dc,p: 31% 18% 8% 43%
x264 [info]: i8 v,h,dc,ddl,ddr,vr,hd,vl,hu: 16% 10% 6% 8% 12% 12% 12% 11% 12%
x264 [info]: i4 v,h,dc,ddl,ddr,vr,hd,vl,hu: 22% 8% 3% 8% 13% 12% 12% 9% 11%
x264 [info]: i8c dc,h,v,p: 40% 24% 20% 16%
x264 [info]: Weighted P-Frames: Y:97.5% UV:2.1%
x264 [info]: ref P L0: 49.6% 11.0% 15.6% 6.0% 4.9% 3.3% 3.0% 1.6% 1.5% 1.2% 1.2% 1.1% 0.1% 0.0%
x264 [info]: ref B L0: 73.7% 11.0% 5.6% 2.9% 2.0% 1.6% 1.2% 0.8% 0.7% 0.4% 0.2%
x264 [info]: ref B L1: 94.0% 6.0%
x264 [info]: kb/s:2176.05

Скриншоты

с названием

Торрент перезалит - замена русс.дорожек на дубляж iTunes

If you like the topic, please click share to help develop our site.

To download the file disable ad blocking, and reload the page.

disable adblock How to disable ad blocking?

Download by magnet link 2.89 GB Download Torrent

Login using:

Similar topics



   
Current time is: 27-May 03:22 :: All times are UTC + 3