Iron Jaws - Louder Is Not Enough
orig. Private Press 2010
- Жанр: Speed Metal
Носитель: CD
Год издания: 2010
Страна исполнителя (группы): Italy
Аудиокодек: FLAC (*.flac)
Тип рипа: image+.cue
Битрейт аудио: lossless
Продолжительность: 38:16
Источник (релизер): Собственный диск
Наличие сканов в содержимом раздачи: да
Треклист:
1. Flames, Sparks, Metal
2. Fall Under My Steel
3. Predator
4. War
5. Speed Violence
6. Fast and Loud
7. It's Not Right3
8. VX
9. Iron Jaws
10. Violence and Force (Exciter cover)

Состав

Rock 'n Rob - Bass
Dynamite - Drums
Roberto "Master of Metal" Quaglia - Guitars
Metal Dave - Vocals

Лог создания рипа

Exact Audio Copy V1.1 from 23. June 2015
EAC extraction logfile from 3. October 2015, 12:08
Iron Jaws / Louder Is Not Enough (orig. Private Press 2010)
Used drive : TEAC DV-W524GSB Adapter: 1 ID: 1
Read mode : Secure
Utilize accurate stream : Yes
Defeat audio cache : Yes
Make use of C2 pointers : No
Read offset correction : 6
Overread into Lead-In and Lead-Out : No
Fill up missing offset samples with silence : Yes
Delete leading and trailing silent blocks : No
Null samples used in CRC calculations : Yes
Used interface : Native Win32 interface for Win NT & 2000
Used output format : User Defined Encoder
Selected bitrate : 896 kBit/s
Quality : High
Add ID3 tag : No
Command line compressor : C:\Program Files (x86)\Exact Audio Copy\Flac\flac.exe
Additional command line options : -6 -V -T "ARTIST=%artist%" -T "TITLE=%title%" -T "ALBUM=%albumtitle%" -T "DATE=%year%" -T "TRACKNUMBER=%tracknr%" -T "GENRE=%genre%" -T "COMMENT=EAC v.1.0b1/Flac 1.2.1b" %source%
TOC of the extracted CD
Track | Start | Length | Start sector | End sector
---------------------------------------------------------
1 | 0:00.00 | 0:59.04 | 0 | 4428
2 | 0:59.04 | 3:40.70 | 4429 | 20998
3 | 4:39.74 | 4:07.74 | 20999 | 39597
4 | 8:47.73 | 4:38.74 | 39598 | 60521
5 | 13:26.72 | 3:56.74 | 60522 | 78295
6 | 17:23.71 | 4:33.73 | 78296 | 98843
7 | 21:57.69 | 4:33.01 | 98844 | 119319
8 | 26:30.70 | 3:54.74 | 119320 | 136943
9 | 30:25.69 | 3:56.00 | 136944 | 154643
10 | 34:21.69 | 3:54.00 | 154644 | 172193
Range status and errors
Selected range
Filename T:\Iron Jaws - Louder Is Not Enough (orig. Private Press 2010).wav
Peak level 99.9 %
Extraction speed 7.4 X
Range quality 100.0 %
Copy CRC 592D0CB0
Copy OK
No errors occurred
End of status report
---- CUETools DB Plugin V2.1.6
[CTDB TOCID: XtGvl.NBwdJiYax4eqL94LuEuD0-] disk not present in database
Submit result: XtGvl.NBwdJiYax4eqL94LuEuD0- has been uploaded

Лог проверки качества

PERFORMER: auCDtect Task Manager, ver. 1.6.0 RC1 build 1.6.0.1
Copyright (c) 2008-2010 y-soft. All rights reserved
http://y-soft.org
ANALYZER: auCDtect: CD records authenticity detector, version 0.8.2
Copyright (c) 2004 Oleg Berngardt. All rights reserved.
Copyright (c) 2004 Alexander Djourik. All rights reserved.
FILE: Iron Jaws - Louder Is Not Enough (orig. Private Press 2010).flac
Size: 300017556 Hash: 40B720FEC1779C0A5F1FB9B60BEC0AF0 Accuracy: -m0
Conclusion: CDDA 99%
Signature: A8A0800FFF76E79D6C97EE3C784D5FA870EFAB15

If you like the topic, please click share to help develop our site.

To download the file disable ad blocking, and reload the page.

disable adblock How to disable ad blocking?

Download by magnet link 312 MB Download Torrent

Login using:

Similar topics



   
Current time is: 16-Jul 21:13 :: All times are UTC + 3