Живое / Life«Умное. Сильное. Бездушное»- Страна: США
Жанр: ужасы, фантастика, триллер
Год выпуска: 2017
Продолжительность: 01:43:58
Перевод: Профессиональный (дублированный) (iTunes)
Оригинальная аудиодорожка: английский
Субтитры: русские (форс., полные) английские (форс., полные, SDH)
Навигация по главам: есть
Режиссер: Даниэль Эспиноса / Daniel Espinosa
В ролях: Хироюки Санада (Sho Murakami), Райан Рейнольдс (Rory Adams), Ребекка Фергюсон (Miranda North), Джейк Джилленхол (David Jordan), Ольга Дыховичная (Ekaterina Golovkina), Эрион Бакаре (Hugh Derry), Хесус Дель Орден (Student 2), Аллен МакЛин (Student 1), Лейла Грэйс Боствик-Ридделл (Student 3), Мари Гвелесиани (Student 4), Дэвид Мьюир (20 / 20 Anchor), Элизабет Варгас (20 / 20 Anchor)
Описание: Группа исследователей с международного космического корабля обнаруживает жизнь на Марсе. Они еще не подозревают, какие события повлечет за собой их открытие.- -Качество: BDRip-AVC (исходник - Life.2017.1080p.BluRay.REMUX.AVC.DTS-HD.MA.7.1-FGT)
Формат видео: MKV
Видео: x264, 1152x482 (2.40:1) 23,976 fps, ~2068 kbps, 0.155 bit/pixel
Аудио 1: 48 kHz, AC3 Dolby Digital, 3/2 (L,C,R,l,r) + LFE ch, ~384 kbps [русский]
Аудио 2: 48 kHz, AC3 Dolby Digital, 3/2 (L,C,R,l,r) + LFE ch, ~448 kbps [английский]
Формат субтитров: softsub (SRT)-

MediaInfo | x264 log

Format : Matroska
Format version : Version 4 / Version 2
File size : 2.15 GiB
Duration : 1h 43 min
Overall bit rate : 2 959 kb/s
Movie name : Живое / Life (2017) :: AFM ::
Encoded date : UTC 2017-06-27 18:09:35
Writing application : mkvmerge v8.3.0 ('Over the Horizon') 32bit
Writing library : libebml v1.3.1 + libmatroska v1.4.2
Video
ID : 1
Format : AVC
Format/Info : Advanced Video Codec
Format profile : [email protected]
Format settings, CABAC : Yes
Format settings, ReFrames : 11 frames
Codec ID : V_MPEG4/ISO/AVC
Duration : 1h 43 min
Bit rate : 2 068 kb/s
Width : 1 152 pixels
Height : 482 pixels
Display aspect ratio : 2.40:1
Frame rate mode : Constant
Frame rate : 23.976 (24000/1001) FPS
Color space : YUV
Chroma subsampling : 4:2:0
Bit depth : 8 bits
Scan type : Progressive
Bits/(Pixel*Frame) : 0.155
Stream size : 1.50 GiB (70%)
Title : BDRip by AFM
Writing library : x264 core 151 r2836+45 cabfa1f 7mod [[email protected] X86_64]
Encoding settings : cabac=1 / ref=11 / deblock=1:-3:-2 / analyse=0x3:0x133 / me=umh / subme=10 / psy=1 / fade_compensate=0.00 / psy_rd=1.00:0.00 / mixed_ref=1 / me_range=32 / chroma_me=0 / trellis=2 / 8x8dct=1 / cqm=0 / deadzone=21,11 / fast_pskip=0 / chroma_qp_offset=-2 / threads=6 / lookahead_threads=1 / sliced_threads=0 / nr=0 / decimate=1 / interlaced=0 / bluray_compat=0 / constrained_intra=0 / fgo=0 / bframes=14 / b_pyramid=2 / b_adapt=2 / b_bias=0 / direct=1 / weightb=1 / open_gop=0 / weightp=2 / keyint=240 / keyint_min=23 / scenecut=40 / intra_refresh=0 / rc_lookahead=120 / rc=crf / mbtree=0 / crf=17.3000 / qcomp=0.70 / qpmin=0:0:0 / qpmax=69:69:69 / qpstep=4 / vbv_maxrate=50000 / vbv_bufsize=62500 / crf_max=0.0 / nal_hrd=none / filler=0 / ip_ratio=1.30 / pb_ratio=1.20 / aq=4:0.80 / aq-sensitivity=10.00 / aq-factor=1.00:1.00:1.00 / aq2=0 / aq3=0 / zones=135855,149567,q=27
Language : English
Default : Yes
Forced : No
Audio #1
ID : 2
Format : AC-3
Format/Info : Audio Coding 3
Mode extension : CM (complete main)
Format settings, Endianness : Big
Codec ID : A_AC3
Duration : 1h 43 min
Bit rate mode : Constant
Bit rate : 384 kb/s
Channel(s) : 6 channels
Channel positions : Front: L C R, Side: L R, LFE
Sampling rate : 48.0 kHz
Frame rate : 31.250 FPS (1536 spf)
Compression mode : Lossy
Stream size : 286 MiB (13%)
Title : Dub, AC3 5.1 ~384 kbps
Language : Russian
Default : Yes
Forced : No
Audio #2
ID : 3
Format : AC-3
Format/Info : Audio Coding 3
Mode extension : CM (complete main)
Format settings, Endianness : Big
Codec ID : A_AC3
Duration : 1h 43 min
Bit rate mode : Constant
Bit rate : 448 kb/s
Channel(s) : 6 channels
Channel positions : Front: L C R, Side: L R, LFE
Sampling rate : 48.0 kHz
Frame rate : 31.250 FPS (1536 spf)
Compression mode : Lossy
Stream size : 333 MiB (15%)
Title : Original, AC3 5.1 ~448 kbps
Language : English
Default : No
Forced : No
Text #1
ID : 4
Format : UTF-8
Codec ID : S_TEXT/UTF8
Codec ID/Info : UTF-8 Plain Text
Title : forced
Language : Russian
Default : Yes
Forced : No
Text #2
ID : 5
Format : UTF-8
Codec ID : S_TEXT/UTF8
Codec ID/Info : UTF-8 Plain Text
Language : Russian
Default : No
Forced : No
Text #3
ID : 6
Format : UTF-8
Codec ID : S_TEXT/UTF8
Codec ID/Info : UTF-8 Plain Text
Title : forced
Language : English
Default : No
Forced : No
Text #4
ID : 7
Format : UTF-8
Codec ID : S_TEXT/UTF8
Codec ID/Info : UTF-8 Plain Text
Language : English
Default : No
Forced : No
Text #5
ID : 8
Format : UTF-8
Codec ID : S_TEXT/UTF8
Codec ID/Info : UTF-8 Plain Text
Title : SDH
Language : English
Default : No
Forced : No
Menu
00:00:00.000 : en:Chapter 01
00:09:32.864 : en:Chapter 02
00:13:13.084 : en:Chapter 03
00:15:36.894 : en:Chapter 04
00:19:35.341 : en:Chapter 05
00:24:57.454 : en:Chapter 06
00:34:36.992 : en:Chapter 07
00:40:45.109 : en:Chapter 08
00:43:59.303 : en:Chapter 09
00:52:21.805 : en:Chapter 10
00:58:33.927 : en:Chapter 11
01:06:37.785 : en:Chapter 12
01:11:43.257 : en:Chapter 13
01:17:50.875 : en:Chapter 14
01:22:39.621 : en:Chapter 15
01:28:34.309 : en:Chapter 16

x264

x264 [info]: frame I:1147 Avg QP:15.44 size: 52647
x264 [info]: frame P:30727 Avg QP:16.66 size: 22323
x264 [info]: frame B:117693 Avg QP:18.42 size: 7740
x264 [info]: consecutive B-frames: 1.8% 1.7% 4.4% 24.6% 17.8% 32.6% 6.6% 5.0% 1.6% 0.9% 0.7% 1.3% 0.5% 0.4% 0.1%
x264 [info]: mb I I16..4: 9.2% 70.9% 20.0%
x264 [info]: mb P I16..4: 1.1% 10.6% 1.8% P16..4: 32.0% 21.4% 12.4% 0.8% 0.2% skip:19.7%
x264 [info]: mb B I16..4: 0.1% 0.8% 0.2% B16..8: 36.1% 12.1% 2.7% direct: 4.8% skip:43.2% L0:42.8% L1:44.9% BI:12.3%
x264 [info]: 8x8 transform intra:76.3% inter:59.0%
x264 [info]: coded y,uvDC,uvAC intra: 78.6% 73.3% 50.4% inter: 20.2% 13.7% 2.4%
x264 [info]: i16 v,h,dc,p: 28% 18% 8% 46%
x264 [info]: i8 v,h,dc,ddl,ddr,vr,hd,vl,hu: 15% 9% 9% 9% 13% 12% 12% 11% 12%
x264 [info]: i4 v,h,dc,ddl,ddr,vr,hd,vl,hu: 23% 7% 5% 9% 14% 12% 12% 9% 11%
x264 [info]: i8c dc,h,v,p: 43% 25% 19% 13%
x264 [info]: Weighted P-Frames: Y:97.5% UV:2.8%
x264 [info]: ref P L0: 50.8% 10.0% 16.1% 6.1% 4.8% 3.3% 2.9% 1.6% 1.5% 1.3% 1.3% 0.1% 0.0%
x264 [info]: ref B L0: 76.4% 10.7% 5.0% 2.4% 1.7% 1.4% 1.1% 0.7% 0.4% 0.2%
x264 [info]: ref B L1: 94.5% 5.5%
x264 [info]: kb/s:2125.36

Скриншоты

с названием


If you like the topic, please click share to help develop our site.

To download the file disable ad blocking, and reload the page.

disable adblock How to disable ad blocking?

Download by magnet link 2.15 GB Download Torrent

Login using:

Similar topics



   
Current time is: 25-Jun 10:36 :: All times are UTC + 3