Patricia Kaas - Kabaret Жанр: Pop
Год выпуска диска: 2008
Производитель диска: Россия
Аудио кодек: APE
Тип рипа: image+.cue
Битрейт аудио: lossless
Продолжительность: 49:28.893
Треклист:

01. Addicte aux Heroines (2:18)
02. La chance jamais ne dure (3:41)
03. Le jour se leve (4:39)
04. Une derniere fois (4:34)
05. Kabaret (3:54)
06. Faites Entrer Les Clowns (3:28)
07. Falling in love again (3:20)
08. Pigalle (3:01)
09. Je t'aime encore (5:01)
10. Solo (3:38)
11. Et s'il fallait le faire (3:48)
12. Mon piano rouge (4:34)
13. Mne Nravistsya (3:33)
Доп. информация: Этот диск выпущен "только для клиентов сети Л'Этуаль".
В раздаче присутствуют сканы обложек в 600dpi.
Приятного прослушивания и оставайтесь на раздаче!

Log EAC

Exact Audio Copy V0.99 prebeta 4 from 23. January 2008
EAC extraction logfile from 6. December 2008, 11:13
Patricia Kaas / Kabaret
Used drive : ASUS DRW-2014L1T Adapter: 2 ID: 0
Read mode : Secure
Utilize accurate stream : Yes
Defeat audio cache : Yes
Make use of C2 pointers : No
Read offset correction : 6
Overread into Lead-In and Lead-Out : No
Fill up missing offset samples with silence : Yes
Delete leading and trailing silent blocks : No
Null samples used in CRC calculations : Yes
Used interface : Installed external ASPI interface
Used output format : Internal WAV Routines
Sample format : 44.100 Hz; 16 Bit; Stereo
TOC of the extracted CD
Track | Start | Length | Start sector | End sector
---------------------------------------------------------
1 | 0:00.00 | 2:17.49 | 0 | 10323
2 | 2:17.49 | 3:41.07 | 10324 | 26905
3 | 5:58.56 | 4:38.72 | 26906 | 47827
4 | 10:37.53 | 4:34.07 | 47828 | 68384
5 | 15:11.60 | 3:53.74 | 68385 | 85933
6 | 19:05.59 | 3:28.09 | 85934 | 101542
7 | 22:33.68 | 3:20.20 | 101543 | 116562
8 | 25:54.13 | 3:00.56 | 116563 | 130118
9 | 28:54.69 | 5:00.65 | 130119 | 152683
10 | 33:55.59 | 3:38.23 | 152684 | 169056
11 | 37:34.07 | 3:47.51 | 169057 | 186132
12 | 41:21.58 | 4:34.23 | 186133 | 206705
13 | 45:56.06 | 3:32.61 | 206706 | 222666
Range status and errors
Selected range
Filename C:\Documents and Settings\Gunner\Мои документы\EVE\logs\Patricia Kaas - Kabaret.wav
Peak level 96.6 %
Range quality 100.0 %
Test CRC 383F89AD
Copy CRC 383F89AD
Copy OK
No errors occurred
AccurateRip summary
Track 1 not present in database
Track 2 not present in database
Track 3 not present in database
Track 4 not present in database
Track 5 not present in database
Track 6 not present in database
Track 7 not present in database
Track 8 not present in database
Track 9 not present in database
Track 10 not present in database
Track 11 not present in database
Track 12 not present in database
Track 13 not present in database
None of the tracks are present in the AccurateRip database
End of status report

Спектр

To download the file disable ad blocking, and reload the page.

disable adblock How to disable ad blocking?

Download by magnet link 320 MB Download Torrent

Login using:

Загрузка...

Similar topics

(Pop) [CD] Patricia Kaas - LongBox (4CD) - 2000, FLAC (image+.cue), lossless
 1.63 GB   0 | 0   10-Jun-17 10:50   2


   
Current time is: 19-Dec 09:16 :: All times are UTC + 3