Информация о фильме
Название: Побег из Захрейна
Оригинальное название: Escape from Zahrain
Год выпуска: 1962
Жанр: Боевик, драма, приключения, экранизация
Выпущено: США, Paramount Pictures
Режиссер: Роналд Ним
В ролях: Юл Бриннер, Энтони Карузо, Сэл Минео, Джей Новелло, Мэдлин Ру, Леонард Стронг, Джек Уорден, Джеймс Мэйсон, Крис Мансон, Владимир Соколов...
О фильме: Экранизация романа Майкла Баррета "Путь в Захрейн". Для освобождения своего лидера, арестованного властями, повстанцы нападают на полицейский фургон. Заодно с ним получают свободу и другие арестанты, мошенник, ограбивший нефтяную компанию и маньяк-садист. Захватив старую санитарную машину вся эта пестрая компания отправляется в бега. Впереди у них, путь через смертельно опасную Аравийскую пустыню, позади, преследующие их силы безопасности правительства.

Продолжительность: 01:33:15
Перевод: Профессиональный многоголосый, авторский
Файл
Качество: BDRip (720p)
Видео: MPEG-4 AVC, 6190 Kбит/с, 1280x546
Аудио #1: Russian: 48 kHz, AC3, 2/0 (L,R) ch, ~192.00 kbps avg - Paramount Chanel
Аудио #2: Russian: 48 kHz, AC3, 2/0 (L,R) ch, ~192.00 kbps avg - Вадим Назаров
Аудио #3: English: 48 kHz, AC3, 1/0 (С) ch, ~128.00 kbps avg

МедиаИнфо

Формат : Matroska
Версия формата : Version 2
Размер файла : 4,37 Гбайт
Продолжительность : 1 ч. 33 м.
Общий поток : 6705 Кбит/сек
Название фильма : ~V ad~
Дата кодирования : UTC 2017-06-30 08:17:14
Программа кодирования : mkvmerge v6.5.0 ('Isn't she lovely') built on Oct 20 2013 12:50:05
Библиотека кодирования : libebml v1.3.0 + libmatroska v1.4.1
Обложка : Yes
Attachments : cover.jpg
Видео
Идентификатор : 1
Формат : AVC
Формат/Информация : Advanced Video Codec
Профиль формата : High@L4.1
Параметр CABAC формата : Да
Параметр ReFrames формата : 11 кадров
Идентификатор кодека : V_MPEG4/ISO/AVC
Продолжительность : 1 ч. 33 м.
Битрейт : 6190 Кбит/сек
Ширина : 1280 пикселей
Высота : 546 пикселей
Соотношение сторон : 2,35:1
Режим частоты кадров : Постоянный
Частота кадров : 23,976 (24000/1001) кадра/сек
Цветовое пространство : YUV
Субдискретизация насыщенности : 4:2:0
Битовая глубина : 8 бит
Тип развёртки : Прогрессивная
Бит/(Пиксели*Кадры) : 0.369
Размер потока : 3,95 Гбайт (90%)
Заголовок : ~V~
Библиотека кодирования : x264 core 150 r2833 df79067
Настройки программы : cabac=1 / ref=11 / deblock=1:-2:-2 / analyse=0x3:0x133 / me=umh / subme=11 / psy=1 / psy_rd=1.00:0.00 / mixed_ref=1 / me_range=32 / chroma_me=1 / trellis=2 / 8x8dct=1 / cqm=0 / deadzone=21,11 / fast_pskip=0 / chroma_qp_offset=-2 / threads=12 / lookahead_threads=1 / sliced_threads=0 / nr=0 / decimate=0 / interlaced=0 / bluray_compat=0 / constrained_intra=0 / bframes=12 / b_pyramid=2 / b_adapt=2 / b_bias=0 / direct=3 / weightb=1 / open_gop=0 / weightp=2 / keyint=240 / keyint_min=23 / scenecut=40 / intra_refresh=0 / rc=2pass / mbtree=0 / bitrate=6190 / ratetol=1.0 / qcomp=0.60 / qpmin=0 / qpmax=69 / qpstep=4 / cplxblur=20.0 / qblur=0.5 / ip_ratio=1.24 / pb_ratio=1.26 / aq=3:0.85
Язык : Английский
Default : Да
Forced : Нет
Аудио #1
Идентификатор : 2
Формат : AC-3
Формат/Информация : Audio Coding 3
Параметр Endianness формата : Big
Идентификатор кодека : A_AC3
Продолжительность : 1 ч. 33 м.
Вид битрейта : Постоянный
Битрейт : 192 Кбит/сек
Каналы : 2 канала
Расположение каналов : Front: L R
Частота : 48,0 КГц
Частота кадров : 31,250 кадров/сек (1536 spf)
Битовая глубина : 16 бит
Метод сжатия : С потерями
Размер потока : 128 Мбайт (3%)
Заголовок : MVO [Paramount Chanel]
Язык : Русский
Default : Да
Forced : Нет
Аудио #2
Идентификатор : 3
Формат : AC-3
Формат/Информация : Audio Coding 3
Параметр Endianness формата : Big
Идентификатор кодека : A_AC3
Продолжительность : 1 ч. 33 м.
Вид битрейта : Постоянный
Битрейт : 192 Кбит/сек
Каналы : 2 канала
Расположение каналов : Front: L R
Частота : 48,0 КГц
Частота кадров : 31,250 кадров/сек (1536 spf)
Битовая глубина : 16 бит
Метод сжатия : С потерями
Размер потока : 128 Мбайт (3%)
Заголовок : AVO [Вадим Назаров]
Язык : Русский
Default : Нет
Forced : Нет
Аудио #3
Идентификатор : 4
Формат : AC-3
Формат/Информация : Audio Coding 3
Параметр Endianness формата : Big
Идентификатор кодека : A_AC3
Продолжительность : 1 ч. 33 м.
Вид битрейта : Постоянный
Битрейт : 128 Кбит/сек
Каналы : 1 канал
Расположение каналов : Front: C
Частота : 48,0 КГц
Частота кадров : 31,250 кадров/сек (1536 spf)
Битовая глубина : 16 бит
Метод сжатия : С потерями
Размер потока : 85,4 Мбайт (2%)
Язык : Английский
Default : Нет
Forced : Нет
Меню
00:00:00.000 : en:Chapter 1
00:12:56.774 : en:Chapter 2
00:22:56.665 : en:Chapter 3
00:37:48.306 : en:Chapter 4
00:54:19.588 : en:Chapter 5
01:10:12.541 : en:Chapter 6
01:18:07.680 : en:Chapter 7
01:27:38.920 : en:Chapter 8



Сэмпл
Релиз от:

To download the file disable ad blocking, and reload the page.

disable adblock How to disable ad blocking?

Download by magnet link 4.37 GB Download Torrent

Login using:

Загрузка...

Similar topics

Неистовые / Furia (1999) DVDRip-AVC | A
 2.18 GB   1 | 0   03-Sep-16 15:16   21
Коммандос / Commando (1985) BDRip от HQCLUB | Director's Cut
 1.45 GB   20 | 0   03-Sep-16 16:15   7
Перекресток миров / Crossworlds (1996) DVDRip-AVC | P2, A
 2.86 GB   4 | 0   02-Apr-17 20:00   6


   
Current time is: 19-Dec 00:01 :: All times are UTC + 3