Five Horse Johnson / Jake Leg Boogie
Жанр: Hard Rock/Classic Rock
Носитель: WEB
Год издания: 2017
Издатель (лейбл): Rustbelt Studios
Страна исполнителя (группы): Royal Oak, MI,
Аудиокодек: FLAC (*.flac)
Тип рипа: tracks
Битрейт аудио: lossless
Продолжительность: 36:37
Источник (релизер): Bandcamp & I'm
Наличие сканов в содержимом раздачи: front

Tracklist:
01. Jake Leg Boogie 02:40
02. Magic Man 04:17
03. Cryin’ Shame 04:32
04. Ropes and Chains 03:40
05. Hard Times 04:08
06. Smoke Show 04:17
07. Little Lonely 04:53
08. Overload 03:58
09. Daddy Was a Gun 04:37
10. Last Song 02:35

Dynamic Range Meter

foobar2000 1.3.13 / Dynamic Range Meter 1.1.1
log date: 2017-06-30 15:07:58
--------------------------------------------------------------------------------
Analyzed: Five Horse Johnson / Jake Leg Boogie
--------------------------------------------------------------------------------
DR Peak RMS Duration Track
--------------------------------------------------------------------------------
DR8 -0.36 dB -9.73 dB 2:40 01-Jake Leg Boogie
DR7 -0.64 dB -8.78 dB 4:17 02-Magic Man
DR8 -0.65 dB -9.88 dB 4:32 03-Cryin’ Shame
DR7 -0.44 dB -8.19 dB 3:40 04-Ropes and Chains
DR8 -0.66 dB -9.16 dB 4:08 05-Hard Times
DR6 -0.62 dB -7.94 dB 4:17 06-Smoke Show
DR7 -0.50 dB -9.77 dB 4:53 07-Little Lonely
DR7 -0.66 dB -8.37 dB 3:58 08-Overload
DR7 -0.57 dB -9.34 dB 4:37 09-Daddy Was a Gun
DR10 -0.69 dB -12.76 dB 2:35 10-Last Song
--------------------------------------------------------------------------------
Number of tracks: 10
Official DR value: DR7
Samplerate: 44100 Hz
Channels: 2
Bits per sample: 16
Bitrate: 918 kbps
Codec: FLAC

Лог проверки качества

PERFORMER: auCDtect Task Manager, ver. 1.6.0 RC1 build 1.6.0.1
Copyright (c) 2008-2010 y-soft. All rights reserved
http://y-soft.org
ANALYZER: auCDtect: CD records authenticity detector, version 0.8.2
Copyright (c) 2004 Oleg Berngardt. All rights reserved.
Copyright (c) 2004 Alexander Djourik. All rights reserved.
FILE: 01 Jake Leg Boogie.flac
Size: 21174490 Hash: AB9E9DBD7DD6A1650F8ED25A7E221116 Accuracy: -m0
Conclusion: CDDA 100%
Signature: C61F181EF91F03752E52828AA28913748674A424
FILE: 02 Magic Man.flac
Size: 33948850 Hash: F3AEDC1CE9B3066598558C1B973B1431 Accuracy: -m0
Conclusion: CDDA 100%
Signature: A530535BDBF8DB61F89FC432B1D4B4DBE274325A
FILE: 03 Cryin’ Shame.flac
Size: 34862290 Hash: 00E99F3C02674725B689882F7B754711 Accuracy: -m0
Conclusion: CDDA 100%
Signature: 3018BACC7641BFF7468F77688DEA31B375EF2D18
FILE: 04 Ropes and Chains.flac
Size: 28311153 Hash: 2448D3E18F8281F42818798B7B397E6F Accuracy: -m0
Conclusion: CDDA 100%
Signature: E4465F7ABA2D4F079A8C113E903D74EEF8BAC5B1
FILE: 05 Hard Times.flac
Size: 31551658 Hash: 20865E182619F0D451639E8228559859 Accuracy: -m0
Conclusion: CDDA 100%
Signature: B360E5EE76FBDD911DBAA2617A1186C6D99C2433
FILE: 06 Smoke Show.flac
Size: 33276454 Hash: 80898ED32CB9A725EE19CF62B4DCB9C2 Accuracy: -m0
Conclusion: CDDA 100%
Signature: FB4248E9EBD36CDB8C8E0128B0DC5663AA67199B
FILE: 07 Little Lonely.flac
Size: 36546940 Hash: F76977E01FF9E99236A6FABF2D75AB24 Accuracy: -m0
Conclusion: CDDA 99%
Signature: C56E6D30B0553C88D93B5F24F1ECBFED6AEA6A8F
FILE: 08 Overload.flac
Size: 30175541 Hash: 4E4256BEBA00D866B02B3A57AF026297 Accuracy: -m0
Conclusion: CDDA 99%
Signature: 8F555DFE934C0DE0BA672D55142C6B06F05D226E
FILE: 09 Daddy Was a Gun.flac
Size: 34166083 Hash: 242DAC60582CB5F769BC9C626A003696 Accuracy: -m0
Conclusion: CDDA 100%
Signature: 2C5C87751030A2646333644A81F6DE014B95A6EE
FILE: 10 Last Song.flac
Size: 17842968 Hash: F95428195B69BE5406D1287FC0B07011 Accuracy: -m0
Conclusion: CDDA 100%
Signature: 99888385BE4D9EA4A25BAAC792F51A053276BA1D
Альбом выложен в данный раздел, в соответствии с прописанными тегами.

Об исполнителе (группе)

http://smallstone.com/artist/five-horse-johnson/

Состав

Eric Oblander - vox & harp
Brad Coffin - vox & guitar
Steve Smith - bass
Phil Dürr - guitar
Tim Gahagan - drums & percussion

If you like the topic, please click share to help develop our site.

To download the file disable ad blocking, and reload the page.

disable adblock How to disable ad blocking?

Download by magnet link 288 MB Download Torrent

Login using:

Similar topics



   
Current time is: 25-Apr 09:26 :: All times are UTC + 3