The Big FДискография Жанр: Hard Rock
Год издания: 1988 – 1995
Носитель: CD
Издатель (лейбл): Elektra
Страна: United States of America
Аудиокодек: FLAC (*.flac)
Тип рипа: tracks+.cue
Битрейт аудио: lossless
Продолжительность: 01:44:37
Источник (релизер): What.CD
Наличие сканов в содержимом раздачи: нет
-

1989 - The Big F

Label: Elektra
Catalog#: 960 886
Продолжительность: 00:56:25
Трэклист:
1. "Killing Time" (6:43)
2. "Kill the Cowboy" (5:33)
3. "Why" (6:29)
4. "Here's to the Good Life" (5:44)
5. "Doctor Vine" (5:27)
6. "Power Pig" (4:42)
7. "Monkey Boy" (4:48)
8. "Alpert Tango" (4:28)
9. "Biz About Brains" (6:17)
10. "Good God" (6:14)-

Лог создания рипа

Exact Audio Copy V1.0 beta 6 from 9. April 2015
EAC extraction logfile from 15. May 2015, 15:06
The Big F / The Big F
Used drive : TSSTcorpBDDVDW SE-506CB Adapter: 1 ID: 1
Read mode : Secure
Utilize accurate stream : Yes
Defeat audio cache : Yes
Make use of C2 pointers : No
Read offset correction : 6
Overread into Lead-In and Lead-Out : No
Fill up missing offset samples with silence : Yes
Delete leading and trailing silent blocks : No
Null samples used in CRC calculations : Yes
Used interface : Native Win32 interface for Win NT & 2000
Gap handling : Appended to previous track
Used output format : User Defined Encoder
Selected bitrate : 1024 kBit/s
Quality : High
Add ID3 tag : No
Command line compressor : C:\Program Files (x86)\Exact Audio Copy\FLAC\FLAC.EXE
Additional command line options : -8 -V -T "ARTIST=%artist%" -T "TITLE=%title%" -T "ALBUM=%albumtitle%" -T "DATE=%year%" -T "TRACKNUMBER=%tracknr%" -T "GENRE=%genre%" -T "PERFORMER=%albuminterpret%" -T "COMPOSER=%composer%" %haslyrics%--tag-from-file=LYRICS="%lyricsfile%"%haslyrics% -T "ALBUMARTIST=%albumartist%" -T "DISCNUMBER=%cdnumber%" -T "TOTALDISCS=%totalcds%" -T "TOTALTRACKS=%numtracks%" -T "COMMENT=%comment%" %source% -o %dest%
TOC of the extracted CD
Track | Start | Length | Start sector | End sector
---------------------------------------------------------
1 | 0:00.33 | 6:43.35 | 33 | 30292
2 | 6:43.68 | 5:33.22 | 30293 | 55289
3 | 12:17.15 | 6:29.13 | 55290 | 84477
4 | 18:46.28 | 5:44.57 | 84478 | 110334
5 | 24:31.10 | 5:27.60 | 110335 | 134919
6 | 29:58.70 | 4:42.35 | 134920 | 156104
7 | 34:41.30 | 4:48.40 | 156105 | 177744
8 | 39:29.70 | 4:28.18 | 177745 | 197862
9 | 43:58.13 | 6:17.12 | 197863 | 226149
10 | 50:15.25 | 6:13.60 | 226150 | 254184
Track 1
Filename F:\My Storage\What.cd Uploads\The Big F - The Big F (1989) [FLAC]\01 - Killing Time.wav
Pre-gap length 0:00:02.44
Peak level 99.6 %
Extraction speed 1.2 X
Track quality 100.0 %
Test CRC 73933CC1
Copy CRC 73933CC1
Accurately ripped (confidence 3) [2AA46CE8] (AR v2)
Copy OK
Track 2
Filename F:\My Storage\What.cd Uploads\The Big F - The Big F (1989) [FLAC]\02 - Kill the Cowboy.wav
Peak level 100.0 %
Extraction speed 1.3 X
Track quality 99.9 %
Test CRC 75585C50
Copy CRC 75585C50
Accurately ripped (confidence 4) [85A821D6] (AR v2)
Copy OK
Track 3
Filename F:\My Storage\What.cd Uploads\The Big F - The Big F (1989) [FLAC]\03 - Why.wav
Pre-gap length 0:00:00.66
Peak level 99.9 %
Extraction speed 1.6 X
Track quality 100.0 %
Test CRC D36A0684
Copy CRC D36A0684
Accurately ripped (confidence 3) [21F8E515] (AR v2)
Copy OK
Track 4
Filename F:\My Storage\What.cd Uploads\The Big F - The Big F (1989) [FLAC]\04 - Here's to the Good Life.wav
Pre-gap length 0:00:00.30
Peak level 99.9 %
Extraction speed 1.7 X
Track quality 100.0 %
Test CRC E4B681D6
Copy CRC E4B681D6
Accurately ripped (confidence 4) [C605F374] (AR v2)
Copy OK
Track 5
Filename F:\My Storage\What.cd Uploads\The Big F - The Big F (1989) [FLAC]\05 - Doctor Vine.wav
Pre-gap length 0:00:00.26
Peak level 93.0 %
Extraction speed 1.8 X
Track quality 100.0 %
Test CRC 48871453
Copy CRC 48871453
Accurately ripped (confidence 4) [E9962131] (AR v2)
Copy OK
Track 6
Filename F:\My Storage\What.cd Uploads\The Big F - The Big F (1989) [FLAC]\06 - Power Pig.wav
Pre-gap length 0:00:00.42
Peak level 100.0 %
Extraction speed 1.9 X
Track quality 100.0 %
Test CRC 98C8BFF1
Copy CRC 98C8BFF1
Accurately ripped (confidence 3) [A4477176] (AR v2)
Copy OK
Track 7
Filename F:\My Storage\What.cd Uploads\The Big F - The Big F (1989) [FLAC]\07 - Monkey Boy.wav
Pre-gap length 0:00:01.69
Peak level 97.5 %
Extraction speed 1.9 X
Track quality 100.0 %
Test CRC E5F7AC55
Copy CRC E5F7AC55
Accurately ripped (confidence 4) [55BF20CE] (AR v2)
Copy OK
Track 8
Filename F:\My Storage\What.cd Uploads\The Big F - The Big F (1989) [FLAC]\08 - Alpert Tango.wav
Peak level 100.0 %
Extraction speed 1.8 X
Track quality 99.9 %
Test CRC 250C1798
Copy CRC 250C1798
Accurately ripped (confidence 3) [A07A4AB3] (AR v2)
Copy OK
Track 9
Filename F:\My Storage\What.cd Uploads\The Big F - The Big F (1989) [FLAC]\09 - Biz About Brains.wav
Pre-gap length 0:00:00.17
Peak level 100.0 %
Extraction speed 2.0 X
Track quality 99.9 %
Test CRC FD172D31
Copy CRC FD172D31
Accurately ripped (confidence 3) [2F386781] (AR v2)
Copy OK
Track 10
Filename F:\My Storage\What.cd Uploads\The Big F - The Big F (1989) [FLAC]\10 - Good God.wav
Peak level 91.4 %
Extraction speed 2.1 X
Track quality 99.9 %
Test CRC 335BA809
Copy CRC 335BA809
Accurately ripped (confidence 4) [32861F03] (AR v2)
Copy OK
All tracks accurately ripped
No errors occurred
End of status report
---- CUETools DB Plugin V2.1.6
[CTDB TOCID: VjgUUDxEv8eNcP6kr4n1HzjpIKI-] found
Submit result: VjgUUDxEv8eNcP6kr4n1HzjpIKI- has been uploaded
Track | CTDB Status
1 | (1/1) Accurately ripped
2 | (1/1) Accurately ripped
3 | (1/1) Accurately ripped
4 | (1/1) Accurately ripped
5 | (1/1) Accurately ripped
6 | (1/1) Accurately ripped
7 | (1/1) Accurately ripped
8 | (1/1) Accurately ripped
9 | (1/1) Accurately ripped
10 | (1/1) Accurately ripped
==== Log checksum 001B68DCACDF61312315175FFFB3A56E26B0E106B7A6D5DEDEAFA15E3F2A1680 ====

Содержание индексной карты (.CUE)

REM GENRE Hard Rock
REM DATE 1989
REM DISCID 730D3D0A
REM COMMENT "ExactAudioCopy v1.0b6"
CATALOG 0075596088626
PERFORMER "The Big F"
TITLE "The Big F"
FILE "01 Killing Time.flac" WAVE
TRACK 01 AUDIO
TITLE "Killing Time"
PERFORMER "The Big F"
PREGAP 00:00:33
INDEX 01 00:00:00
FILE "02 Kill the Cowboy.flac" WAVE
TRACK 02 AUDIO
TITLE "Kill the Cowboy"
PERFORMER "The Big F"
INDEX 01 00:00:00
TRACK 03 AUDIO
TITLE "Why"
PERFORMER "The Big F"
INDEX 00 05:32:47
FILE "03 Why.flac" WAVE
INDEX 01 00:00:00
TRACK 04 AUDIO
TITLE "Here's to the Good Life"
PERFORMER "The Big F"
INDEX 00 06:28:65
FILE "04 Here's to the Good Life.flac" WAVE
INDEX 01 00:00:00
TRACK 05 AUDIO
TITLE "Doctor Vine"
PERFORMER "The Big F"
INDEX 00 05:44:37
FILE "05 Doctor Vine.flac" WAVE
INDEX 01 00:00:00
TRACK 06 AUDIO
TITLE "Power Pig"
PERFORMER "The Big F"
INDEX 00 05:27:28
FILE "06 Power Pig.flac" WAVE
INDEX 01 00:00:00
TRACK 07 AUDIO
TITLE "Monkey Boy"
PERFORMER "The Big F"
INDEX 00 04:40:58
FILE "07 Monkey Boy.flac" WAVE
INDEX 01 00:00:00
FILE "08 Alpert Tango.flac" WAVE
TRACK 08 AUDIO
TITLE "Alpert Tango"
PERFORMER "The Big F"
INDEX 01 00:00:00
TRACK 09 AUDIO
TITLE "Biz About Brains"
PERFORMER "The Big F"
INDEX 00 04:28:05
FILE "09 Biz About Brains.flac" WAVE
INDEX 01 00:00:00
FILE "10 Good God.flac" WAVE
TRACK 10 AUDIO
TITLE "Good God"
PERFORMER "The Big F"
INDEX 01 00:00:00

1993 - Is

Label: Chrysalis
Catalog#: 7243 8 27019 2 7
Продолжительность: 00:48:06
Трэклист:
1. "Patience Peregrine" (5:58)
2. "Way Low to Be Low" (5:15)
3. "Wicked Thing" (4:22)
4. "Mother Mary" (4:09)
5. "Idiot Kid Heads Out" (4:46)
6. "Gone Ancient" (3:35)
7. "Mama Jame " (4:24)
8. "Fefofi" (6:40)
9. "Lube" (8:57)-

Лог создания рипа

Exact Audio Copy V1.3 from 2. September 2016
EAC extraction logfile from 28. June 2017, 17:19
The Big F / Is
Used drive : HL-DT-STDVD-RAM GHC0N Adapter: 1 ID: 0
Read mode : Secure
Utilize accurate stream : Yes
Defeat audio cache : Yes
Make use of C2 pointers : No
Read offset correction : 6
Overread into Lead-In and Lead-Out : No
Fill up missing offset samples with silence : Yes
Delete leading and trailing silent blocks : No
Null samples used in CRC calculations : Yes
Used interface : Native Win32 interface for Win NT & 2000
Gap handling : Appended to previous track
Used output format : User Defined Encoder
Selected bitrate : 1024 kBit/s
Quality : High
Add ID3 tag : No
Command line compressor : C:\Program Files (x86)\Exact Audio Copy\Flac\flac.exe
Additional command line options : -8 -e -p -V -T "ARTIST=%artist%" -T "TITLE=%title%" -T "ALBUM=%albumtitle%" -T "DATE=%year%" -T "TRACKNUMBER=%tracknr%" -T "GENRE=%genre%" -T "PERFORMER=%albuminterpret%" -T "COMPOSER=%composer%" %haslyrics%--tag-from-file=LYRICS="%lyricsfile%"%haslyrics% -T "ALBUMARTIST=%albumartist%" -T "DISCNUMBER=%cdnumber%" -T "TOTALDISCS=%totalcds%" -T "TOTALTRACKS=%numtracks%" -T "COMMENT=%comment%" %source% -o %dest%
TOC of the extracted CD
Track | Start | Length | Start sector | End sector
---------------------------------------------------------
1 | 0:00.00 | 5:57.60 | 0 | 26834
2 | 5:57.60 | 5:15.30 | 26835 | 50489
3 | 11:13.15 | 4:22.07 | 50490 | 70146
4 | 15:35.22 | 4:09.43 | 70147 | 88864
5 | 19:44.65 | 4:46.25 | 88865 | 110339
6 | 24:31.15 | 3:35.27 | 110340 | 126491
7 | 28:06.42 | 4:24.10 | 126492 | 146301
8 | 32:30.52 | 6:40.30 | 146302 | 176331
9 | 39:11.07 | 8:57.20 | 176332 | 216626
Track 1
Filename C:\Users\Neil\Documents\what.cd\NEW\The Big F - Is [FLAC]\01 Patience Peregrine.wav
Pre-gap length 0:00:02.00
Peak level 100.0 %
Extraction speed 2.9 X
Track quality 100.0 %
Test CRC EEAC44C5
Copy CRC EEAC44C5
Accurately ripped (confidence 5) [E8A5CDB5] (AR v2)
Copy OK
Track 2
Filename C:\Users\Neil\Documents\what.cd\NEW\The Big F - Is [FLAC]\02 Way Low to Be Low.wav
Peak level 100.0 %
Extraction speed 1.7 X
Track quality 99.9 %
Test CRC 6010503B
Copy CRC 6010503B
Accurately ripped (confidence 5) [F3606F1E] (AR v2)
Copy OK
Track 3
Filename C:\Users\Neil\Documents\what.cd\NEW\The Big F - Is [FLAC]\03 Wicked Thing.wav
Peak level 100.0 %
Extraction speed 3.5 X
Track quality 100.0 %
Test CRC 71FE5866
Copy CRC 71FE5866
Accurately ripped (confidence 5) [648DF4AC] (AR v2)
Copy OK
Track 4
Filename C:\Users\Neil\Documents\what.cd\NEW\The Big F - Is [FLAC]\04 Mother Mary.wav
Peak level 100.0 %
Extraction speed 3.7 X
Track quality 100.0 %
Test CRC DFE72A12
Copy CRC DFE72A12
Accurately ripped (confidence 5) [77FE73C8] (AR v2)
Copy OK
Track 5
Filename C:\Users\Neil\Documents\what.cd\NEW\The Big F - Is [FLAC]\05 Idiot Kid Heads Out.wav
Peak level 100.0 %
Extraction speed 3.8 X
Track quality 100.0 %
Test CRC 025A7C36
Copy CRC 025A7C36
Accurately ripped (confidence 5) [FA242121] (AR v2)
Copy OK
Track 6
Filename C:\Users\Neil\Documents\what.cd\NEW\The Big F - Is [FLAC]\06 Gone Ancient.wav
Peak level 100.0 %
Extraction speed 3.9 X
Track quality 100.0 %
Test CRC 08C0DB5D
Copy CRC 08C0DB5D
Accurately ripped (confidence 5) [782AAC27] (AR v2)
Copy OK
Track 7
Filename C:\Users\Neil\Documents\what.cd\NEW\The Big F - Is [FLAC]\07 Mama Jame.wav
Peak level 100.0 %
Extraction speed 4.3 X
Track quality 100.0 %
Test CRC CBA33398
Copy CRC CBA33398
Accurately ripped (confidence 5) [44E8CE45] (AR v2)
Copy OK
Track 8
Filename C:\Users\Neil\Documents\what.cd\NEW\The Big F - Is [FLAC]\08 Fefofi.wav
Peak level 100.0 %
Extraction speed 4.0 X
Track quality 99.9 %
Test CRC 70584556
Copy CRC 70584556
Accurately ripped (confidence 5) [F51B8EA6] (AR v2)
Copy OK
Track 9
Filename C:\Users\Neil\Documents\what.cd\NEW\The Big F - Is [FLAC]\09 Lube.wav
Pre-gap length 0:00:00.15
Peak level 100.0 %
Extraction speed 5.1 X
Track quality 100.0 %
Test CRC 97FC5897
Copy CRC 97FC5897
Accurately ripped (confidence 5) [1EC37BE5] (AR v2)
Copy OK
All tracks accurately ripped
No errors occurred
End of status report
---- CUETools DB Plugin V2.1.6
[CTDB TOCID: ORQu4rBvqsFY4BojOIi3ufpDonU-] found
Submit result: ORQu4rBvqsFY4BojOIi3ufpDonU- has been confirmed
Track | CTDB Status
1 | (8/8) Accurately ripped
2 | (8/8) Accurately ripped
3 | (8/8) Accurately ripped
4 | (7/8) Accurately ripped
5 | (8/8) Accurately ripped
6 | (8/8) Accurately ripped
7 | (8/8) Accurately ripped
8 | (8/8) Accurately ripped
9 | (8/8) Accurately ripped
==== Log checksum 179B6A9DB388F35A824712BF4F74512E854A3DB60FB45CE1B4A055057BBB2EA8 ====

Содержание индексной карты (.CUE)

REM GENRE "Hard Rock"
REM DATE 1993
REM DISCID 8C0B4809
REM COMMENT "ExactAudioCopy v1.3"
PERFORMER "The Big F"
TITLE "Is"
FILE "01 Patience Peregrine.flac" WAVE
TRACK 01 AUDIO
TITLE "Patience Peregrine"
PERFORMER "The Big F"
INDEX 01 00:00:00
FILE "02 Way Low to Be Low.flac" WAVE
TRACK 02 AUDIO
TITLE "Way Low to Be Low"
PERFORMER "The Big F"
INDEX 01 00:00:00
FILE "03 Wicked Thing.flac" WAVE
TRACK 03 AUDIO
TITLE "Wicked Thing"
PERFORMER "The Big F"
INDEX 01 00:00:00
FILE "04 Mother Mary.flac" WAVE
TRACK 04 AUDIO
TITLE "Mother Mary"
PERFORMER "The Big F"
INDEX 01 00:00:00
FILE "05 Idiot Kid Heads Out.flac" WAVE
TRACK 05 AUDIO
TITLE "Idiot Kid Heads Out"
PERFORMER "The Big F"
INDEX 01 00:00:00
FILE "06 Gone Ancient.flac" WAVE
TRACK 06 AUDIO
TITLE "Gone Ancient"
PERFORMER "The Big F"
INDEX 01 00:00:00
FILE "07 Mama Jame.flac" WAVE
TRACK 07 AUDIO
TITLE "Mama Jame"
PERFORMER "The Big F"
INDEX 01 00:00:00
FILE "08 Fefofi.flac" WAVE
TRACK 08 AUDIO
TITLE "Fefofi"
PERFORMER "The Big F"
INDEX 01 00:00:00
TRACK 09 AUDIO
TITLE "Lube"
PERFORMER "The Big F"
INDEX 00 06:40:15
FILE "09 Lube.flac" WAVE
INDEX 01 00:00:00

To download the file disable ad blocking, and reload the page.

disable adblock How to disable ad blocking?

Download by magnet link 709 MB Download Torrent

Login using:

Загрузка...

Similar topics

(Hard Rock | Alternative) Year12 - Great Escape - 2018, MP3, 320 kbps
 109 MB   0 | 0   13-Dec-18 11:30   3


   
Current time is: 18-Dec 23:54 :: All times are UTC + 3