Stalingrad 119 / Inné vital
Жанр: Progressive Rock/Jazz/Fusion/Canterbury Scene
Носитель: WEB
Год издания: 2012
Страна исполнителя (группы): France
Аудиокодек: FLAC (*.flac)
Тип рипа: tracks
Битрейт аудио: lossless
Продолжительность: 52:32
Источник (релизер): Bandcamp
Наличие сканов в содержимом раздачи: нет

01. Hope wagon [00:05:35]
02. Mek mehr [00:04:35]
03. Narod naya volya [00:04:03]
04. Bois qui roule [00:04:20]
05. Billy C. [00:07:34]
06. Polar [00:05:33]
07. Triton le méchant [00:05:55]
08. Lude [00:04:14]
09. Bomber in the night [00:06:32]
10. Why?no!! [00:04:05]
released October 19, 2012
--

Состав

Gentien De bosmelet: keyboards and background vocals
Elodie De bosmelet: vocals
Christophe Laborde: electric bass, electric guitar
Samuel Maitre: bass clarinet , soprano sax and voice
François Renault: drums, glockenspiel, background vocals, oboe
Specials guests:
Erwan Adam: vocals ( Triton le méchant )
François Marillier: percussions ( Bomber in the night )
Brice Moscardini: trumpet ( Billy C. )
Ronan Rocher: "Latinus dixit" lyrics ( Triton le méchant )
Pierre Thary : cello ( Why no )

Лог проверки качества

-----------------------
DON'T MODIFY THIS FILE
-----------------------
PERFORMER: auCDtect Task Manager, ver. 1.6.0 RC1 build 1.6.0.1
Copyright (c) 2008-2010 y-soft. All rights reserved
http://y-soft.org
ANALYZER: auCDtect: CD records authenticity detector, version 0.8.2
Copyright (c) 2004 Oleg Berngardt. All rights reserved.
Copyright (c) 2004 Alexander Djourik. All rights reserved.
FILE: Stalingrad 119 - Inné vital - 10 Why-no!!.flac
Size: 23088394 Hash: 8915041011B0CD62208C6E54B2988D13 Accuracy: -m0
Conclusion: CDDA 100%
Signature: 5A1E7F4416DC91A5F33A7BBBCD68896C86A11068
FILE: Stalingrad 119 - Inné vital - 09 Bomber in the night.flac
Size: 43572725 Hash: 148E260D006CF6198C3FFF8F3652A316 Accuracy: -m0
Conclusion: CDDA 100%
Signature: CE29FE1960C92DF5483C07222C6F8A115DDD5ACC
FILE: Stalingrad 119 - Inné vital - 08 Lude.flac
Size: 31031904 Hash: 1C3337E68D94B8E126B13CB2BBB85A41 Accuracy: -m0
Conclusion: CDDA 100%
Signature: B4BFBD77760F353893638655356998AE3348F31F
FILE: Stalingrad 119 - Inné vital - 07 Triton le méchant.flac
Size: 35494454 Hash: EBE2C1D14EFA263066C9B9592AE37527 Accuracy: -m0
Conclusion: CDDA 100%
Signature: D4F9F57E006D2B9FE1AD051D530EF90D6B3339B8
FILE: Stalingrad 119 - Inné vital - 06 Polar.flac
Size: 37226756 Hash: 955E4F61EB91E4E344DD4504D847F291 Accuracy: -m0
Conclusion: CDDA 100%
Signature: 0528D9516C8B08F4BA554380F142B09D713641B6
FILE: Stalingrad 119 - Inné vital - 05 Billy C..flac
Size: 48956536 Hash: FAC97CAEC216D9218CA2B4E219C5B587 Accuracy: -m0
Conclusion: CDDA 100%
Signature: 16175E01A2CE1582B27E9FAC284373A21D80DA07
FILE: Stalingrad 119 - Inné vital - 04 Bois qui roule.flac
Size: 27957710 Hash: C1723E35ACFA58FC9B230838B5294814 Accuracy: -m0
Conclusion: CDDA 100%
Signature: 596B584CA1CFC3AE502291126211B0E54B1A7BEA
FILE: Stalingrad 119 - Inné vital - 03 Narod naya volya.flac
Size: 23970375 Hash: 4A58BE15BD4E4FD61EE537D35B946434 Accuracy: -m0
Conclusion: CDDA 100%
Signature: 934AE3A940D0440CD47F0ED08AEC47F7BAD23AA7
FILE: Stalingrad 119 - Inné vital - 02 Mek mehr.flac
Size: 32207781 Hash: A4E2AC66278D562535DC536B7CA9ABF3 Accuracy: -m0
Conclusion: CDDA 100%
Signature: A0F0A2DD17D76E77184785A3F332CCE3130C04E3
FILE: Stalingrad 119 - Inné vital - 01 Hope wagon.flac
Size: 36920710 Hash: 6F64A9A002064F937001618EE7D135C9 Accuracy: -m0
Conclusion: CDDA 100%
Signature: 2A8FCB4A71FBF8D3135737A89B9BB5179E57EC00

Динамический диапазон (DR10)

foobar2000 1.3.12 / Dynamic Range Meter 1.1.1
log date: 2017-06-30 08:46:41
--------------------------------------------------------------------------------
Analyzed: Stalingrad 119 / Inné vital
--------------------------------------------------------------------------------
DR Peak RMS Duration Track
--------------------------------------------------------------------------------
DR11 0.00 dB -13.37 dB 5:36 01-Hope wagon
DR10 0.00 dB -12.27 dB 4:36 02-Mek mehr
DR11 0.00 dB -13.55 dB 4:04 03-Narod naya volya
DR10 0.00 dB -12.84 dB 4:21 04-Bois qui roule
DR9 0.00 dB -12.46 dB 7:34 05-Billy C.
DR10 0.00 dB -11.67 dB 5:34 06-Polar
DR10 0.00 dB -12.07 dB 5:55 07-Triton le méchant
DR9 0.00 dB -11.20 dB 4:15 08-Lude
DR9 -0.07 dB -11.56 dB 6:32 09-Bomber in the night
DR11 0.00 dB -14.26 dB 4:06 10-Why?no!!
--------------------------------------------------------------------------------
Number of tracks: 10
Official DR value: DR10
Samplerate: 44100 Hz
Channels: 2
Bits per sample: 16
Bitrate: 750 kbps
Codec: FLAC
================================================================================
--

If you like the topic, please click share to help develop our site.

To download the file disable ad blocking, and reload the page.

disable adblock How to disable ad blocking?

Download by magnet link 325 MB Download Torrent

Login using:

Similar topics



   
Current time is: 25-May 13:09 :: All times are UTC + 3