Willie Nile / Positively Bob: Willie Nile Sings Bob Dylan
Жанр: Rock
Носитель: CD
Страна-производитель диска (релиза): USA
Год издания: 2017
Издатель (лейбл): River House Records
Номер по каталогу: RHR9916-02
Аудиокодек: FLAC (*.flac)
Тип рипа: image+.cue
Битрейт аудио: lossless
Продолжительность: 00:37:44
Источник (релизер): : London
Наличие сканов в содержимом раздачи: да
Треклист:
01. The Times They Are A-Changin' (03:13)
02. Rainy Day Women #12 & 35 (03:23)
03. Blowin' In The Wind (03:50)
04. A Hard Rain's A-Gonna Fall (05:54)
05. I Want You (03:34)
06. Subterranean Homesick Blues (02:38)
07. Love Minus Zero/No Limit (03:12)
08. Every Grain Of Sand (03:55)
09. You Ain't Goin' Nowhere (03:48)
10. Abandoned Love (04:13)

Лог создания рипа

Exact Audio Copy V1.3 from 2. September 2016
EAC extraction logfile from 30. June 2017, 13:23
Willie Nile / Positively Bob: Willie Nile Sings Bob Dylan
Used drive : ATAPI iHAS122 C Adapter: 1 ID: 0
Read mode : Secure
Utilize accurate stream : Yes
Defeat audio cache : Yes
Make use of C2 pointers : No
Read offset correction : 6
Overread into Lead-In and Lead-Out : No
Fill up missing offset samples with silence : Yes
Delete leading and trailing silent blocks : No
Null samples used in CRC calculations : Yes
Used interface : Native Win32 interface for Win NT & 2000
Used output format : Internal WAV Routines
Sample format : 44.100 Hz; 16 Bit; Stereo
TOC of the extracted CD
Track | Start | Length | Start sector | End sector
---------------------------------------------------------
1 | 0:00.00 | 3:13.28 | 0 | 14502
2 | 3:13.28 | 3:23.22 | 14503 | 29749
3 | 6:36.50 | 3:50.42 | 29750 | 47041
4 | 10:27.17 | 5:54.31 | 47042 | 73622
5 | 16:21.48 | 3:34.54 | 73623 | 89726
6 | 19:56.27 | 2:38.27 | 89727 | 101603
7 | 22:34.54 | 3:12.70 | 101604 | 116073
8 | 25:47.49 | 3:55.00 | 116074 | 133698
9 | 29:42.49 | 3:48.35 | 133699 | 150833
10 | 33:31.09 | 4:13.28 | 150834 | 169836
Range status and errors
Selected range
Filename C:\Users\London\Desktop\Willie Nile - Positively Bob- Willie Nile Sings Bob Dylan.wav
Peak level 99.7 %
Extraction speed 7.7 X
Range quality 100.0 %
Test CRC 0769A7FC
Copy CRC 0769A7FC
Copy OK
No errors occurred
AccurateRip summary
Track 1 not present in database
Track 2 not present in database
Track 3 not present in database
Track 4 not present in database
Track 5 not present in database
Track 6 not present in database
Track 7 not present in database
Track 8 not present in database
Track 9 not present in database
Track 10 not present in database
None of the tracks are present in the AccurateRip database
End of status report
---- CUETools DB Plugin V2.1.6
[CTDB TOCID: JwICljNDKtsnZPUbOO44OyaWtMo-] found
Submit result: JwICljNDKtsnZPUbOO44OyaWtMo- has been confirmed
Track | CTDB Status
1 | (1/1) Accurately ripped
2 | (1/1) Accurately ripped
3 | (1/1) Accurately ripped
4 | (1/1) Accurately ripped
5 | (1/1) Accurately ripped
6 | (1/1) Accurately ripped
7 | (1/1) Accurately ripped
8 | (1/1) Accurately ripped
9 | (1/1) Accurately ripped
10 | (1/1) Accurately ripped
==== Log checksum 88F0850F87FB2753EA2F25FC3CF05B428C92F2B487219314B02AF57231035DBB ====

Содержание индексной карты (.CUE)

REM DISCID 9908D80A
REM COMMENT "ExactAudioCopy v1.3"
PERFORMER "Willie Nile"
TITLE "Positively Bob: Willie Nile Sings Bob Dylan"
REM COMPOSER ""
FILE "Willie Nile - Positively Bob- Willie Nile Sings Bob Dylan.flac" WAVE
TRACK 01 AUDIO
TITLE "The Times They Are A-Changin'"
PERFORMER "Willie Nile"
REM COMPOSER ""
INDEX 01 00:00:00
TRACK 02 AUDIO
TITLE "Rainy Day Women #12 & 35"
PERFORMER "Willie Nile"
REM COMPOSER ""
INDEX 01 03:13:28
TRACK 03 AUDIO
TITLE "Blowin' In The Wind"
PERFORMER "Willie Nile"
REM COMPOSER ""
INDEX 01 06:36:50
TRACK 04 AUDIO
TITLE "A Hard Rain's A-Gonna Fall"
PERFORMER "Willie Nile"
REM COMPOSER ""
INDEX 01 10:27:17
TRACK 05 AUDIO
TITLE "I Want You"
PERFORMER "Willie Nile"
REM COMPOSER ""
INDEX 01 16:21:48
TRACK 06 AUDIO
TITLE "Subterranean Homesick Blues"
PERFORMER "Willie Nile"
REM COMPOSER ""
INDEX 01 19:56:27
TRACK 07 AUDIO
TITLE "Love Minus Zero/No Limit"
PERFORMER "Willie Nile"
REM COMPOSER ""
INDEX 01 22:34:54
TRACK 08 AUDIO
TITLE "Every Grain Of Sand"
PERFORMER "Willie Nile"
REM COMPOSER ""
INDEX 01 25:47:49
TRACK 09 AUDIO
TITLE "You Aint Goin' Nowhere"
PERFORMER "Willie Nile"
REM COMPOSER ""
INDEX 01 29:42:49
TRACK 10 AUDIO
TITLE "Abandoned Love"
PERFORMER "Willie Nile"
REM COMPOSER ""
INDEX 01 33:31:09

DR Log

foobar2000 1.1.10 / Dynamic Range Meter 1.1.1
log date: 2017-06-30 22:05:16
--------------------------------------------------------------------------------
Analyzed: Willie Nile / Positively Bob: Willie Nile Sings Bob Dylan
--------------------------------------------------------------------------------
DR Peak RMS Duration Track
--------------------------------------------------------------------------------
DR6 -0.02 dB -6.85 dB 3:13 ?-The Times They Are A-Changin'
DR5 -0.02 dB -6.58 dB 3:23 ?-Rainy Day Women #12 & 35
DR5 -0.02 dB -6.38 dB 3:51 ?-Blowin' In The Wind
DR6 -0.02 dB -7.72 dB 5:54 ?-A Hard Rain's A-Gonna Fall
DR7 -0.02 dB -8.07 dB 3:35 ?-I Want You
DR7 -0.02 dB -7.58 dB 2:38 ?-Subterranean Homesick Blues
DR7 -0.02 dB -8.05 dB 3:13 ?-Love Minus Zero/No Limit
DR8 -0.02 dB -10.06 dB 3:55 ?-Every Grain Of Sand
DR6 -0.02 dB -8.08 dB 3:48 ?-You Aint Goin' Nowhere
DR6 -0.02 dB -8.47 dB 4:13 ?-Abandoned Love
--------------------------------------------------------------------------------
Number of tracks: 10
Official DR value: DR6
Samplerate: 44100 Hz
Channels: 2
Bits per sample: 16
Bitrate: 984 kbps
Codec: FLAC
================================================================================

Об альбоме (сборнике)

In a consistently colorful musical career that spans nearly four decades, Willie Nile has established a reputation as a world-class rock n roller, and as a singular songwriter with deep roots in rock's rich history. So it's not surprising that he'd choose to tip his hat to one of his most enduring musical inspirations with his eleventh studio album. Positively Bob: Willie Nile Sings Bob Dylan is a heartfelt, personally charged set of Dylan covers that honors it's subject while exemplifying the same qualities that have distinguished Nile's work since the beginning.
Dylan's poetic genius and playful irreverence are prominent throughout Positively Bob, with Nile mining ten vintage Dylan compositions, with imaginative, uninhibited arrangements that often recast familiar songs in a fascinating new light.
'These songs meant the world to me when I was younger and they mean the world to me now. The mystic leap of faith it took to write them, and the courage it took to believe and make a stand in hopes for something better, makes my heart sing and wander now as it did when I first heard them.' - Willie Nile

Состав

Willie Nile - Acoustic Guitar, Vocals
James Maddock - Acoustic & Electric Guitars, Backing Vocals
Matt Hogan - Electric Guitar
Johnny Pisano - Bass Guitar, Backing Vocals
Andy Burton - Piano, Organ, Wurly, Vox Continental, Synth
Aaron Comess - Drums
Frankie Lee - Tambourine & Sharer
Leslie Mendelson - Backing Vocals

To download the file disable ad blocking, and reload the page.

disable adblock How to disable ad blocking?

Download by magnet link 276 MB Download Torrent

Login using:

Загрузка...

Similar topics

(Blues Rock) Big Willy - All In - 2018, MP3, 320 kbps
 111 MB   0 | 0   21-Aug-18 12:25   2
(Folk-Rock) Willie Nile - Children Of Paradise - 2018, MP3, 320 kbps
 101 MB   0 | 0   30-Jul-18 08:45   8


   
Current time is: 15-Dec 22:30 :: All times are UTC + 3