-Дискография Harlott-Жанр: Thrash Metal
Носитель: CD
Страна-производитель диска (релиза): EU
Год издания: 2013-2015
Страна исполнителя (группы): AU
Аудиокодек: FLAC (*.flac)
Тип рипа: image+.cue
Битрейт аудио: lossless
Продолжительность: 01:24:27
Источник (релизер): автор раздачи
Наличие сканов в содержимом раздачи: да

2013 - Origin [Punishment 18 Records - P18R 074]

1 Origin
2 Effortles Struggle
3 Ballistic
4 Heretic
5 Export Life
6 Hierophobia
7 Kill
8 Infernal Massacre
9 Regression
10 Virus
11 Ultra Violence
12 Not Long For This World

Лог создания рипа

Exact Audio Copy V1.3 from 2. September 2016
EAC extraction logfile from 30. June 2017, 21:13
Harlott / Origin
Used drive : SlimtypeDVD A DU8A5SH Adapter: 1 ID: 0
Read mode : Secure
Utilize accurate stream : Yes
Defeat audio cache : Yes
Make use of C2 pointers : No
Read offset correction : 6
Overread into Lead-In and Lead-Out : No
Fill up missing offset samples with silence : Yes
Delete leading and trailing silent blocks : No
Null samples used in CRC calculations : Yes
Used interface : Native Win32 interface for Win NT & 2000
Used output format : User Defined Encoder
Selected bitrate : 1024 kBit/s
Quality : High
Add ID3 tag : No
Command line compressor : C:\Program Files (x86)\Exact Audio Copy\Flac\flac.exe
Additional command line options : -T "COMMENT=by k0ste for ********.org" -V -8 -T "Date=%year%" -T "Genre=%genre%" %source%
TOC of the extracted CD
Track | Start | Length | Start sector | End sector
---------------------------------------------------------
1 | 0:00.00 | 3:49.56 | 0 | 17230
2 | 3:49.56 | 3:17.21 | 17231 | 32026
3 | 7:07.02 | 2:06.19 | 32027 | 41495
4 | 9:13.21 | 2:32.35 | 41496 | 52930
5 | 11:45.56 | 4:42.70 | 52931 | 74150
6 | 16:28.51 | 4:30.30 | 74151 | 94430
7 | 20:59.06 | 3:10.45 | 94431 | 108725
8 | 24:09.51 | 2:42.02 | 108726 | 120877
9 | 26:51.53 | 4:22.32 | 120878 | 140559
10 | 31:14.10 | 2:58.07 | 140560 | 153916
11 | 34:12.17 | 1:31.00 | 153917 | 160741
12 | 35:43.17 | 4:10.51 | 160742 | 179542
Range status and errors
Selected range
Filename Z:\mnt\nas\PIZDA\2013 - Origin.wav
Peak level 98.8 %
Extraction speed 3.3 X
Range quality 100.0 %
Test CRC 2462B609
Copy CRC 2462B609
Copy OK
No errors occurred
AccurateRip summary
Track 1 accurately ripped (confidence 2) [15F04B7F] (AR v2)
Track 2 accurately ripped (confidence 2) [1AFBD667] (AR v2)
Track 3 accurately ripped (confidence 2) [DDED3199] (AR v2)
Track 4 accurately ripped (confidence 2) [1D6A715E] (AR v2)
Track 5 accurately ripped (confidence 2) [BE4D5745] (AR v2)
Track 6 accurately ripped (confidence 2) [06371C02] (AR v2)
Track 7 accurately ripped (confidence 2) [DA395293] (AR v2)
Track 8 accurately ripped (confidence 2) [BA8AE958] (AR v2)
Track 9 accurately ripped (confidence 2) [5F486B2D] (AR v2)
Track 10 accurately ripped (confidence 2) [A28EB758] (AR v2)
Track 11 accurately ripped (confidence 2) [72CB8356] (AR v2)
Track 12 accurately ripped (confidence 2) [E78E0630] (AR v2)
All tracks accurately ripped
End of status report
==== Log checksum CB5EB1DE471C39DDB0F66AC9FB8F69F4D14B3D09AAD51629B680CA3EB5532418 ====

Содержание индексной карты (.CUE)

REM GENRE "Thrash Metal"
REM DATE 2013
REM DISCID 9309590C
REM COMMENT "ExactAudioCopy v1.3"
PERFORMER "Harlott"
TITLE "Origin"
REM COMPOSER ""
FILE "2013 - Origin.flac" WAVE
TRACK 01 AUDIO
TITLE "Orign"
PERFORMER "Harlott"
REM COMPOSER ""
INDEX 01 00:00:00
TRACK 02 AUDIO
TITLE "Effortless Struggle"
PERFORMER "Harlott"
REM COMPOSER ""
INDEX 01 03:49:56
TRACK 03 AUDIO
TITLE "Ballistic"
PERFORMER "Harlott"
REM COMPOSER ""
INDEX 01 07:07:02
TRACK 04 AUDIO
TITLE "Heretic"
PERFORMER "Harlott"
REM COMPOSER ""
INDEX 01 09:13:21
TRACK 05 AUDIO
TITLE "Export Life"
PERFORMER "Harlott"
REM COMPOSER ""
INDEX 01 11:45:56
TRACK 06 AUDIO
TITLE "Hierophobia"
PERFORMER "Harlott"
REM COMPOSER ""
INDEX 01 16:28:51
TRACK 07 AUDIO
TITLE "Kill"
PERFORMER "Harlott"
REM COMPOSER ""
INDEX 01 20:59:06
TRACK 08 AUDIO
TITLE "Infernal Massacre"
PERFORMER "Harlott"
REM COMPOSER ""
INDEX 01 24:09:51
TRACK 09 AUDIO
TITLE "Regression"
PERFORMER "Harlott"
REM COMPOSER ""
INDEX 01 26:51:53
TRACK 10 AUDIO
TITLE "Virus"
PERFORMER "Harlott"
REM COMPOSER ""
INDEX 01 31:14:10
TRACK 11 AUDIO
TITLE "Ultra Violence"
PERFORMER "Harlott"
REM COMPOSER ""
INDEX 01 34:12:17
TRACK 12 AUDIO
TITLE "Not Long For This World"
PERFORMER "Harlott"
REM COMPOSER ""
INDEX 01 35:43:17

2015 - Proliferation [Metal Blade Records - 3984-15416-2]

1 Proliferation
2 Denature
3 Systematic Reduction
4 Restless
5 The Fading Light
6 Lord Of War
7 Civil Unrest
8 Hellbent
9 Bloodlust
10 Cross Contamination
11 Legion
12 Means To An End

Лог создания рипа

Exact Audio Copy V1.3 from 2. September 2016
EAC extraction logfile from 28. June 2017, 21:42
Harlott / Proliferation
Used drive : SlimtypeDVD A DU8A5SH Adapter: 1 ID: 0
Read mode : Secure
Utilize accurate stream : Yes
Defeat audio cache : Yes
Make use of C2 pointers : No
Read offset correction : 6
Overread into Lead-In and Lead-Out : No
Fill up missing offset samples with silence : Yes
Delete leading and trailing silent blocks : No
Null samples used in CRC calculations : Yes
Used interface : Native Win32 interface for Win NT & 2000
Used output format : User Defined Encoder
Selected bitrate : 1024 kBit/s
Quality : High
Add ID3 tag : No
Command line compressor : C:\Program Files (x86)\Exact Audio Copy\Flac\flac.exe
Additional command line options : -T "COMMENT=by k0ste for ********.org" -V -8 -T "Date=%year%" -T "Genre=%genre%" %source%
TOC of the extracted CD
Track | Start | Length | Start sector | End sector
---------------------------------------------------------
1 | 0:00.00 | 4:59.36 | 0 | 22460
2 | 4:59.36 | 3:57.32 | 22461 | 40267
3 | 8:56.68 | 1:34.32 | 40268 | 47349
4 | 10:31.25 | 2:21.55 | 47350 | 57979
5 | 12:53.05 | 4:31.10 | 57980 | 78314
6 | 17:24.15 | 4:06.10 | 78315 | 96774
7 | 21:30.25 | 4:44.37 | 96775 | 118111
8 | 26:14.62 | 4:39.69 | 118112 | 139105
9 | 30:54.56 | 2:00.72 | 139106 | 148177
10 | 32:55.53 | 3:06.46 | 148178 | 162173
11 | 36:02.24 | 3:39.30 | 162174 | 178628
12 | 39:41.54 | 4:51.57 | 178629 | 200510
Range status and errors
Selected range
Filename Z:\mnt\nas\PIZDA\2015 - Proliferation.wav
Peak level 98.8 %
Extraction speed 1.8 X
Range quality 100.0 %
Test CRC B42CA96E
Copy CRC B42CA96E
Copy OK
No errors occurred
AccurateRip summary
Track 1 accurately ripped (confidence 4) [F06F0E55] (AR v2)
Track 2 accurately ripped (confidence 4) [36549361] (AR v2)
Track 3 accurately ripped (confidence 4) [3BC3E934] (AR v2)
Track 4 accurately ripped (confidence 4) [BBBB4A4F] (AR v2)
Track 5 accurately ripped (confidence 4) [71368A68] (AR v2)
Track 6 accurately ripped (confidence 4) [B9370BA6] (AR v2)
Track 7 accurately ripped (confidence 4) [E5EFDE76] (AR v2)
Track 8 accurately ripped (confidence 4) [5660446F] (AR v2)
Track 9 accurately ripped (confidence 4) [BB55B1F9] (AR v2)
Track 10 accurately ripped (confidence 4) [82E73B5D] (AR v2)
Track 11 accurately ripped (confidence 4) [21E48CF4] (AR v2)
Track 12 accurately ripped (confidence 4) [C32DABBB] (AR v2)
All tracks accurately ripped
End of status report
==== Log checksum C9C9D1369CBB58E004B81786BEAB6F9CE69FCFA3F42682909C8BFB174FAC2493 ====

Содержание индексной карты (.CUE)

REM GENRE "Thrash Metal"
REM DATE 2015
REM DISCID AA0A710C
REM COMMENT "ExactAudioCopy v1.3"
PERFORMER "Harlott"
TITLE "Proliferation"
REM COMPOSER ""
FILE "2015 - Proliferation.flac" WAVE
TRACK 01 AUDIO
TITLE "Proliferation"
PERFORMER "Harlott"
REM COMPOSER ""
ISRC USMBR1511468
INDEX 01 00:00:00
TRACK 02 AUDIO
TITLE "Denature"
PERFORMER "Harlott"
REM COMPOSER ""
ISRC USMBR1511469
INDEX 00 04:57:36
INDEX 01 04:59:36
TRACK 03 AUDIO
TITLE "Systematic Reduction"
PERFORMER "Harlott"
REM COMPOSER ""
ISRC USMBR1511470
INDEX 00 08:55:22
INDEX 01 08:56:68
TRACK 04 AUDIO
TITLE "Restless"
PERFORMER "Harlott"
REM COMPOSER ""
ISRC USMBR1511471
INDEX 00 10:29:35
INDEX 01 10:31:25
TRACK 05 AUDIO
TITLE "The Fading Light"
PERFORMER "Harlott"
REM COMPOSER ""
ISRC USMBR1511472
INDEX 00 12:50:05
INDEX 01 12:53:05
TRACK 06 AUDIO
TITLE "Lord Of War"
PERFORMER "Harlott"
REM COMPOSER ""
ISRC USMBR1511473
INDEX 00 17:21:49
INDEX 01 17:24:15
TRACK 07 AUDIO
TITLE "Civil Unrest"
PERFORMER "Harlott"
REM COMPOSER ""
ISRC USMBR1511474
INDEX 00 21:28:25
INDEX 01 21:30:25
TRACK 08 AUDIO
TITLE "Hellbent"
PERFORMER "Harlott"
REM COMPOSER ""
ISRC USMBR1511475
INDEX 00 26:11:24
INDEX 01 26:14:62
TRACK 09 AUDIO
TITLE "Bloodlust"
PERFORMER "Harlott"
REM COMPOSER ""
ISRC USMBR1511476
INDEX 00 30:52:56
INDEX 01 30:54:56
TRACK 10 AUDIO
TITLE "Cross Contamination"
PERFORMER "Harlott"
REM COMPOSER ""
ISRC USMBR1511477
INDEX 00 32:53:53
INDEX 01 32:55:53
TRACK 11 AUDIO
TITLE "Legion"
PERFORMER "Harlott"
REM COMPOSER ""
ISRC USMBR1511478
INDEX 00 36:00:24
INDEX 01 36:02:24
TRACK 12 AUDIO
TITLE "Means To An End"
PERFORMER "Harlott"
REM COMPOSER ""
ISRC USMBR1511479
INDEX 00 39:38:11
INDEX 01 39:41:54
Доп. информация:

Как разбить на треки? | Где взять в другом формате? [mp3, ALAC, и т.д.]

Есть замечательная, отечественная программа xrecode, которая работает под Microsoft Windows, Linux (через Wine), поддерживает многопоточность, при этом условно бесплатная. Режет на треки, собирает обратно, перепаковывает, сжимает во всё и вся, незаменима.
Данный материал предоставлен исключительно для ознакомления. Рекомендую приобрести лицензионную продукцию.

To download the file disable ad blocking, and reload the page.

disable adblock How to disable ad blocking?

Download by magnet link 994 MB Download Torrent

Login using:

Загрузка...

Similar topics

(Thrash Metal) Disorder - Fuego Negro - 2017, MP3, 320 kbps
 68 MB   0 | 0   18-May-17 23:10   1
(Thrash Metal) Black Reaper - Blood Moon Rising - 2017, MP3, 320 kbps
 109 MB   0 | 0   18-May-17 23:10   0


   
Current time is: 15-Dec 21:16 :: All times are UTC + 3