Anal Cunt — 40 More Reason To Hate Us
Жанр: Noise Grind
Год выпуска диска: 1996
Производитель диска: USA
Аудио кодек: FLAC
Тип рипа: image+.cue
Продолжительность: 31:45

Трэклист

01. Face It You're A Metal Band
02. Punching Joe Bonni'e Face In
03. Kill Women
04. Steroids Guy
05. Everyone In Alston Should Be Killed
06. I Noticed That You're Gay
07. Dead, Gay And Dropped
08. You Look Devorced
09. I Hope You Get Deported
10. Mike Mahan Has Gingivitis
11. Trapped
12. You're A Fucking Cunt
13. Phyllis Is An Old Annoying Cunt
14. Al Stankus Is Always On The Phone With His Bookie
15. Bill Scott's Dumb
16. Harvey Korman Is Gay
17. You Fucking Freak
18. Theme From Three's Company
19. Jeaninejizm Is A Freak
20. Everyone In Anal Cunt Is Dumb
21. I Just Saw Is Gayest Guy On Earth
22. Johnny Violent Getting His Ass Kicked By Morrisey
23. Metamorphosis
24. I'm Sick Of You
25. Howard Wulkan's Bald
26. You're A Trendy Fucking Pussy
27. Tom Arnold
28. I Got Athletes Foot Showering At Mikes
29. Big Pants, Big Loser
30. Marc Payson Is A Drunk
31. Your Family Is Dumb
32. Furnace
33. You're Dumb
34. Van Full Of Retards
35. Deche Charge Are A Bunch Of Fucking Losers
36. Everyone In The Underground Music Scene Is Stupid
37. Dumb, Fat & Gross
38. I'm Not Stubborn
39. Mike Mahana's Sty
40. 02657
41. Gloves Of Metal (Duet With Philip Anselmo)
42. Bonus Track
EAC Log:

скрытый текст

Exact Audio Copy V0.99 prebeta 4 from 23. January 2008
Отчёт EAC об извлечении, выполненном 25. марта 2009, 13:42
Anal Cunt / 40 More Reasons to Hate Us
Дисковод: _NEC DVD_RW ND-4571A Adapter: 1 ID: 0
Режим чтения : Достоверность
Использование точного потока : Да
Отключение кэша аудио : Да
Использование указателей C2 : Нет
Коррекция смещения при чтении : 48
Способность читать области Lead-in и Lead-out : Нет
Заполнение пропущенных сэмплов тишиной : Да
Удаление блоков с тишиной в начале и конце : Нет
При вычислениях CRC использовались нулевые сэмплы : Да
Интерфейс : Установленный внешний ASPI-интерфейс
Выходной формат : Пользовательский кодировщик
Выбранный битрейт : 1024 kBit/s
Качество : Высокий
Добавление ID3-тэга : Да
Утилита сжатия : C:\Program Files\Exact Audio Copy\Flac\flac.exe
Дополнительные параметры : -8 -V -T "ARTIST=%a" -T "TITLE=%t" -T "ALBUM=%g" -T "DATE=%y" -T "TRACKNUMBER=%n" -T "GENRE=%m" -T "COMMENT=EAC FLAC -8" %s
TOC извлечённого CD
Трек | Старт | Длительность | Начальный сектор | Конечный сектор
---------------------------------------------------------------------
1 | 0:00.00 | 0:12.63 | 0 | 962
2 | 0:12.63 | 0:23.00 | 963 | 2687
3 | 0:35.63 | 0:21.30 | 2688 | 4292
4 | 0:57.18 | 0:33.17 | 4293 | 6784
5 | 1:30.35 | 0:37.30 | 6785 | 9589
6 | 2:07.65 | 0:52.03 | 9590 | 13492
7 | 2:59.68 | 0:56.10 | 13493 | 17702
8 | 3:56.03 | 0:44.17 | 17703 | 21019
9 | 4:40.20 | 0:59.05 | 21020 | 25449
10 | 5:39.25 | 0:25.58 | 25450 | 27382
11 | 6:05.08 | 1:22.55 | 27383 | 33587
12 | 7:27.63 | 1:13.20 | 33588 | 39082
13 | 8:41.08 | 0:21.72 | 39083 | 40729
14 | 9:03.05 | 0:48.05 | 40730 | 44334
15 | 9:51.10 | 0:44.70 | 44335 | 47704
16 | 10:36.05 | 0:12.03 | 47705 | 48607
17 | 10:48.08 | 0:51.02 | 48608 | 52434
18 | 11:39.10 | 0:37.25 | 52435 | 55234
19 | 12:16.35 | 1:17.60 | 55235 | 61069
20 | 13:34.20 | 0:29.08 | 61070 | 63252
21 | 14:03.28 | 1:33.42 | 63253 | 70269
22 | 15:36.70 | 0:32.63 | 70270 | 72732
23 | 16:09.58 | 0:13.27 | 72733 | 73734
24 | 16:23.10 | 1:05.65 | 73735 | 78674
25 | 17:29.00 | 0:11.00 | 78675 | 79499
26 | 17:40.00 | 0:40.28 | 79500 | 82527
27 | 18:20.28 | 0:11.65 | 82528 | 83417
28 | 18:32.18 | 0:51.62 | 83418 | 87304
29 | 19:24.05 | 1:09.55 | 87305 | 92534
30 | 20:33.60 | 0:47.15 | 92535 | 96074
31 | 21:21.00 | 0:30.20 | 96075 | 98344
32 | 21:51.20 | 0:12.43 | 98345 | 99287
33 | 22:03.63 | 0:57.57 | 99288 | 103619
34 | 23:01.45 | 0:27.05 | 103620 | 105649
35 | 23:28.50 | 0:29.20 | 105650 | 107844
36 | 23:57.70 | 0:31.33 | 107845 | 110202
37 | 24:29.28 | 0:22.25 | 110203 | 111877
38 | 24:51.53 | 1:27.02 | 111878 | 118404
39 | 26:18.55 | 0:12.50 | 118405 | 119354
40 | 26:31.30 | 0:34.30 | 119355 | 121934
41 | 27:05.60 | 4:31.23 | 121935 | 142282
42 | 31:37.08 | 0:08.42 | 142283 | 142924
Характеристики диапазона извлечения и сообщения об ошибках
Выбранный диапазон
Имя файла D:\GRINDOME\ANAL CUNT\Anal Cunt — 1996 — 40 More Reason To Hate Us\Anal Cunt - 40 More Reasons to Hate Us.wav
Пиковый уровень 99.4 %
Качество диапазона 100.0 %
CRC копии 7EE9E0A7
Копирование... OK
Ошибок не произошло
AccurateRip: сводка
Трек 1 нет в базе данных
Трек 2 нет в базе данных
Трек 3 нет в базе данных
Трек 4 нет в базе данных
Трек 5 нет в базе данных
Трек 6 нет в базе данных
Трек 7 нет в базе данных
Трек 8 нет в базе данных
Трек 9 нет в базе данных
Трек 10 нет в базе данных
Трек 11 нет в базе данных
Трек 12 нет в базе данных
Трек 13 нет в базе данных
Трек 14 нет в базе данных
Трек 15 нет в базе данных
Трек 16 нет в базе данных
Трек 17 нет в базе данных
Трек 18 нет в базе данных
Трек 19 нет в базе данных
Трек 20 нет в базе данных
Трек 21 нет в базе данных
Трек 22 нет в базе данных
Трек 23 нет в базе данных
Трек 24 нет в базе данных
Трек 25 нет в базе данных
Трек 26 нет в базе данных
Трек 27 нет в базе данных
Трек 28 нет в базе данных
Трек 29 нет в базе данных
Трек 30 нет в базе данных
Трек 31 нет в базе данных
Трек 32 нет в базе данных
Трек 33 нет в базе данных
Трек 34 нет в базе данных
Трек 35 нет в базе данных
Трек 36 нет в базе данных
Трек 37 нет в базе данных
Трек 38 нет в базе данных
Трек 39 нет в базе данных
Трек 40 нет в базе данных
Трек 41 нет в базе данных
Трек 42 нет в базе данных
Ни одного трека нет в базе AccurateRip
Конец отчёта
Tau Analyzer:

скрытый текст



AudioChecker:

скрытый текст

To download the file disable ad blocking, and reload the page.

disable adblock How to disable ad blocking?

Download by magnet link 205 MB Download Torrent

Login using:

Загрузка...

Similar topics

(Noise Grind) Anal Cunt — Top 40 Hits - 1995, FLAC (image+.cue), lossless
 228 MB   0 | 0   25-May-17 17:05   1


   
Current time is: 15-Dec 22:01 :: All times are UTC + 3