Информация о фильме
Название: Большой Лебовски
Оригинальное название: The Big Lebowski
Год выхода: 1998
Жанр: комедия, криминал
Режиссер: Джоэл Коэн, Итэн Коэн
В ролях: Джефф Бриджес, Джон Гудмен, Джулианна Мур, Стив Бушеми, Дэвид Хаддлстон, Филип Сеймур Хоффман, Тара Рид, Филип Мун, Марк Пеллегрино, Петер Стормаре
О фильме: Лос-Анджелес, 1991 год, война в Персидском заливе. Главный герой по прозвищу «Чувак» считает себя совершенно счастливым человеком. Его жизнь составляют игра в боулинг и выпивка. Но внезапно его счастье нарушается, гангстеры по ошибке принимают его за миллионера-однофамильца, требуют деньги, о которых он ничего не подозревает, и, ко всему прочему, похищают жену миллионера, будучи уверенными, что «муж» выплатит за нее любую сумму.

Выпущено: Polygram Filmed Entertainment
Продолжительность: 01:56:56
Перевод: Дублированный
Файл
Кодек: x264
Качество: BDRip (источник: Blu-ray Disc)
Видео: 1920x1040 (16:9), 23.976 fps, 4587 kbps
Аудио #1: 48 kHz, AC-3, 6 ch, 384 kbps (Rus)
Аудио #2: 48 kHz, AC-3, 6 ch, 384 kbps (Eng)
Субтитры: Русские, Английские
Скачать: сэмпл
Скриншоты

MI

Общее
Уникальный идентификатор : 243711721384744545043206531565821582097 (0xB7592B925009CE8DA4D93575A01F5B11)
Полное имя : The.Big.Lebowski.1998.BDRip.1080p.Rus.Eng.mkv
Формат : Matroska
Версия формата : Version 2
Размер файла : 4,37 Гбайт
Продолжительность : 1 ч. 56 м.
Общий поток : 5354 Кбит/сек
Дата кодирования : UTC 2011-11-24 16:01:49
Программа кодирования : mkvmerge v4.0.0 ('The Stars were mine') сборка от Jun 6 2010 16:18:42
Библиотека кодирования : libebml v1.0.0 + libmatroska v1.0.0
Видео
Идентификатор : 1
Формат : AVC
Формат/Информация : Advanced Video Codec
Профиль формата : High@L4.1
Параметр CABAC формата : Да
Параметр ReFrames формата : 4 кадра
Идентификатор кодека : V_MPEG4/ISO/AVC
Продолжительность : 1 ч. 56 м.
Битрейт : 4587 Кбит/сек
Ширина : 1920 пикселей
Высота : 1040 пикселей
Соотношение сторон : 16:9
Частота кадров : 23,976 кадра/сек
Цветовое пространство : YUV
Субдискретизация насыщенности : 4:2:0
Битовая глубина : 8 бит
Тип развёртки : Прогрессивная
Бит/(Пиксели*Кадры) : 0.096
Размер потока : 3,66 Гбайт (84%)
Библиотека кодирования : x264 core 119 r2106 07efeb4
Настройки программы : cabac=1 / ref=4 / deblock=1:0:0 / analyse=0x3:0x133 / me=umh / subme=10 / psy=1 / psy_rd=1.00:0.10 / mixed_ref=1 / me_range=32 / chroma_me=1 / trellis=2 / 8x8dct=1 / cqm=0 / deadzone=21,11 / fast_pskip=0 / chroma_qp_offset=-3 / threads=12 / sliced_threads=0 / nr=0 / decimate=1 / interlaced=0 / bluray_compat=0 / constrained_intra=0 / bframes=5 / b_pyramid=2 / b_adapt=2 / b_bias=0 / direct=3 / weightb=1 / open_gop=0 / weightp=2 / keyint=240 / keyint_min=24 / scenecut=40 / intra_refresh=0 / rc_lookahead=60 / rc=2pass / mbtree=1 / bitrate=4587 / ratetol=1.0 / qcomp=0.60 / qpmin=0 / qpmax=69 / qpstep=4 / cplxblur=20.0 / qblur=0.5 / ip_ratio=1.40 / aq=1:1.00
Язык : English
Аудио #1
Идентификатор : 2
Формат : AC-3
Формат/Информация : Audio Coding 3
Расширение режима : CM (complete main)
Идентификатор кодека : A_AC3
Продолжительность : 1 ч. 56 м.
Вид битрейта : Постоянный
Битрейт : 384 Кбит/сек
Каналы : 6 каналов
Расположение каналов : Front: L C R, Side: L R, LFE
Частота : 48,0 КГц
Битовая глубина : 16 бит
Метод сжатия : С потерями
Размер потока : 321 Мбайт (7%)
Язык : Russian
Аудио #2
Идентификатор : 3
Формат : AC-3
Формат/Информация : Audio Coding 3
Расширение режима : CM (complete main)
Идентификатор кодека : A_AC3
Продолжительность : 1 ч. 56 м.
Вид битрейта : Постоянный
Битрейт : 384 Кбит/сек
Каналы : 6 каналов
Расположение каналов : Front: L C R, Side: L R, LFE
Частота : 48,0 КГц
Битовая глубина : 16 бит
Метод сжатия : С потерями
Размер потока : 321 Мбайт (7%)
Язык : English
Текст #1
Идентификатор : 4
Формат : UTF-8
Идентификатор кодека : S_TEXT/UTF8
Идентификатор кодека/Информация : UTF-8 Plain Text
Язык : Russian
Текст #2
Идентификатор : 5
Формат : UTF-8
Идентификатор кодека : S_TEXT/UTF8
Идентификатор кодека/Информация : UTF-8 Plain Text
Язык : English
Меню
00:00:00.000 : :Chapter 01
00:07:14.976 : :Chapter 02
00:09:38.077 : :Chapter 03
00:21:36.086 : :Chapter 04
00:24:10.157 : :Chapter 05
00:24:39.394 : :Chapter 06
00:31:47.071 : :Chapter 07
00:36:54.712 : :Chapter 08
00:42:14.365 : :Chapter 09
00:48:26.069 : :Chapter 10
00:54:10.330 : :Chapter 11
00:55:58.897 : :Chapter 12
01:01:16.130 : :Chapter 13
01:04:52.722 : :Chapter 14
01:08:42.827 : :Chapter 15
01:14:31.967 : :Chapter 16
01:19:51.620 : :Chapter 17
01:26:53.708 : :Chapter 18
01:31:58.346 : :Chapter 19
01:36:35.289 : :Chapter 20
01:40:44.538 : :Chapter 21
01:44:03.987 : :Chapter 22
01:46:03.690 : :Chapter 23
01:48:55.654 : :Chapter 24

To download the file disable ad blocking, and reload the page.

disable adblock How to disable ad blocking?

Download by magnet link 4.37 GB Download Torrent

Login using:

Загрузка...

Similar topics

Несносные леди / Mother's Day (2016) WEB-DLRip | iTunes
 1.36 GB   107 | 1   09-Jul-16 21:06   83
Путь страсти / Passion Lane (2001) DVDRip | P2
 1.45 GB   2 | 0   14-Apr-17 15:20   26
К-911: Собачья работа 2 / K-911 (1999) BDRip 720p | P, P2, A
 4.91 GB   3 | 0   30-Apr-17 22:30   12


   
Current time is: 19-Dec 08:22 :: All times are UTC + 3