СтрелокShooter«Раньше он верил в справедливость. Теперь - в возмездие»- Страна: США
Жанр: боевик, триллер, драма, криминал, детектив
Год выпуска: 2007
Продолжительность: 02:05:44
Перевод: Профессиональный (полное дублирование), Профессиональный (многоголосый, закадровый), Профессиональный (двухголосый, закадровый), Авторский
Субтитры: русские, английские.-Режиссер: Антуан Фукуа / Antoine Fuqua-В ролях: Марк Уолберг (Bob Lee Swagger), Майкл Пенья (Nick Memphis), Дэнни Гловер (Colonel Isaac Johnson), Кейт Мара (Sarah Fenn), Элиас Котеас (Jack Payne), Нед Битти (Senator Charles F. Meachum), Раде Шербеджия (Michael Sandor), Рона Митра (Alourdes Galindo), Джонатан Уолкер (Louis Dobbler), Тейт Донован (Russ Turner), Луис Феррейра (Howard Purnell), Алан С. Петерсон (Officer Stanley Timmons)-Описание: Опытный снайпер Боб Ли оказывается втянутым в заговор с целью убийства президента. Похоже, что его хотят подставить и «сдать» властям, поэтому ему необходимо как можно быстрее найти и обезвредить настоящего убийцу...-
MPAA: R - Лицам до 17 лет обязательно присутствие взрослого-Семпл- -Качество: HDDVDRip 1080p
Контейнер: MKV
Видео: AVC, 1920x800 (2.40:1), 7632 kbps, 23,976 fps, 0,207 bpp
Аудио №1: русский / AC3 / 5.1 / 48 kHz / 640 kbps / Дубляж
Аудио №2: русский / AC3 / 5.1 / 48 kHz / 448 kbps / MVO ( Позитив-Мультимедиа )
Аудио №3: русский / AC3 / 5.1 / 48 kHz / 448 kbps / DVO ( П.Гланц и И.Королёва )
Аудио №4: русский / AC3 / 5.1 / 48 kHz / 384 kbps / AVO ( Гаврилов )
Аудио №5: русский / AC3 / 5.1 / 48 kHz / 384 kbps / AVO ( Живов )
Аудио №6: русский / AC3 / 5.1 / 48 kHz / 384 kbps / AVO ( Королёв )
Аудио №7: английский / AC3 / 5.1 / 48 kHz / 640 kbps
Навигация по главам: есть-

Media Info

**********************************************************************
x264 [info]: frame I:1916 Avg QP:16.51 size:160593
x264 [info]: frame P:39306 Avg QP:18.15 size: 75514
x264 [info]: frame B:139674 Avg QP:20.91 size: 29565
x264 [info]: consecutive B-frames: 2.1% 2.4% 9.6% 19.1% 17.0% 44.2% 3.7% 1.1% 0.9%
x264 [info]: ref P L0: 48.2% 9.5% 24.3% 9.0% 7.9% 0.9% 0.1%
**********************************************************************
Формат : Matroska
Версия формата : Version 2
Размер файла : 9,82 Гбайт
Продолжительность : 2 ч. 5 м.
Общий поток : 11,2 Мбит/сек
Название фильма : = Стрелок / Shooter (2007) HDDVDRip 1080p - KORSAR =
Дата кодирования : UTC 2017-06-26 22:43:00
Программа кодирования : mkvmerge v5.8.0 ('No Sleep / Pillow') built on Sep 2 2012 15:37:04
Библиотека кодирования : libebml v1.2.3 + libmatroska v1.3.0
Attachment : Yes
Видео
Идентификатор : 1
Формат : AVC
Формат/Информация : Advanced Video Codec
Профиль формата : High@L4.1
Параметр CABAC формата : Да
Параметр ReFrames формата : 5 кадров
Идентификатор кодека : V_MPEG4/ISO/AVC
Продолжительность : 2 ч. 5 м.
Битрейт : 7632 Кбит/сек
Ширина : 1920 пикселей
Высота : 800 пикселей
Соотношение сторон : 2,40:1
Режим частоты кадров : Постоянный
Частота кадров : 23,976 кадра/сек
Цветовое пространство : YUV
Субдискретизация насыщенности : 4:2:0
Битовая глубина : 8 бит
Тип развёртки : Прогрессивная
Бит/(Пиксели*Кадры) : 0.207
Размер потока : 6,70 Гбайт (68%)
Заголовок : Стрелок / Shooter (2007) HDDVDRip 1080p - KORSAR
Библиотека кодирования : x264 core 146 r2538 121396c
Настройки программы : cabac=1 / ref=5 / deblock=1:-3:-3 / analyse=0x3:0x113 / me=umh / subme=11 / psy=1 / psy_rd=1.00:0.00 / mixed_ref=1 / me_range=32 / chroma_me=1 / trellis=2 / 8x8dct=1 / cqm=0 / deadzone=21,11 / fast_pskip=0 / chroma_qp_offset=-2 / threads=12 / lookahead_threads=2 / sliced_threads=0 / nr=0 / decimate=1 / interlaced=0 / bluray_compat=0 / constrained_intra=0 / bframes=8 / b_pyramid=2 / b_adapt=2 / b_bias=0 / direct=3 / weightb=1 / open_gop=0 / weightp=2 / keyint=240 / keyint_min=23 / scenecut=40 / intra_refresh=0 / rc=crf / mbtree=0 / crf=17.8 / qcomp=0.60 / qpmin=0 / qpmax=69 / qpstep=4 / ip_ratio=1.40 / pb_ratio=1.30 / aq=2:0.80
Язык : English
Default : Да
Forced : Нет
Основные цвета : BT.709
Характеристики трансфера : BT.709
Коэффициенты матрицы : BT.709
Аудио #1
Идентификатор : 2
Формат : AC-3
Формат/Информация : Audio Coding 3
Расширение режима : CM (complete main)
Параметр Endianness формата : Big
Идентификатор кодека : A_AC3
Продолжительность : 2 ч. 5 м.
Вид битрейта : Постоянный
Битрейт : 640 Кбит/сек
Каналы : 6 каналов
Расположение каналов : Front: L C R, Side: L R, LFE
Частота : 48,0 КГц
Битовая глубина : 16 бит
Метод сжатия : С потерями
Размер потока : 576 Мбайт (6%)
Заголовок : Дубляж
Язык : Russian
Default : Да
Forced : Нет
Аудио #2
Идентификатор : 3
Формат : AC-3
Формат/Информация : Audio Coding 3
Расширение режима : CM (complete main)
Параметр Endianness формата : Big
Идентификатор кодека : A_AC3
Продолжительность : 2 ч. 5 м.
Вид битрейта : Постоянный
Битрейт : 448 Кбит/сек
Каналы : 6 каналов
Расположение каналов : Front: L C R, Side: L R, LFE
Частота : 48,0 КГц
Битовая глубина : 16 бит
Метод сжатия : С потерями
Размер потока : 403 Мбайт (4%)
Заголовок : MVO ( Позитив-Мультимедиа )
Язык : Russian
Default : Нет
Forced : Нет
Аудио #3
Идентификатор : 4
Формат : AC-3
Формат/Информация : Audio Coding 3
Расширение режима : CM (complete main)
Параметр Endianness формата : Big
Идентификатор кодека : A_AC3
Продолжительность : 2 ч. 5 м.
Вид битрейта : Постоянный
Битрейт : 448 Кбит/сек
Каналы : 6 каналов
Расположение каналов : Front: L C R, Side: L R, LFE
Частота : 48,0 КГц
Битовая глубина : 16 бит
Метод сжатия : С потерями
Размер потока : 403 Мбайт (4%)
Заголовок : DVO ( П.Гланц и И.Королёва )
Язык : Russian
Default : Нет
Forced : Нет
Аудио #4
Идентификатор : 5
Формат : AC-3
Формат/Информация : Audio Coding 3
Расширение режима : CM (complete main)
Параметр Endianness формата : Big
Идентификатор кодека : A_AC3
Продолжительность : 2 ч. 5 м.
Вид битрейта : Постоянный
Битрейт : 384 Кбит/сек
Каналы : 6 каналов
Расположение каналов : Front: L C R, Side: L R, LFE
Частота : 48,0 КГц
Битовая глубина : 16 бит
Метод сжатия : С потерями
Размер потока : 345 Мбайт (3%)
Заголовок : AVO ( Гаврилов )
Язык : Russian
Default : Нет
Forced : Нет
Аудио #5
Идентификатор : 6
Формат : AC-3
Формат/Информация : Audio Coding 3
Расширение режима : CM (complete main)
Параметр Endianness формата : Big
Идентификатор кодека : A_AC3
Продолжительность : 2 ч. 5 м.
Вид битрейта : Постоянный
Битрейт : 384 Кбит/сек
Каналы : 6 каналов
Расположение каналов : Front: L C R, Side: L R, LFE
Частота : 48,0 КГц
Битовая глубина : 16 бит
Метод сжатия : С потерями
Размер потока : 345 Мбайт (3%)
Заголовок : AVO ( Живов )
Язык : Russian
Default : Нет
Forced : Нет
Аудио #6
Идентификатор : 7
Формат : AC-3
Формат/Информация : Audio Coding 3
Расширение режима : CM (complete main)
Параметр Endianness формата : Big
Идентификатор кодека : A_AC3
Продолжительность : 2 ч. 5 м.
Вид битрейта : Постоянный
Битрейт : 384 Кбит/сек
Каналы : 6 каналов
Расположение каналов : Front: L C R, Side: L R, LFE
Частота : 48,0 КГц
Битовая глубина : 16 бит
Метод сжатия : С потерями
Размер потока : 345 Мбайт (3%)
Заголовок : AVO ( Королёв )
Язык : Russian
Default : Нет
Forced : Нет
Аудио #7
Идентификатор : 8
Формат : AC-3
Формат/Информация : Audio Coding 3
Расширение режима : CM (complete main)
Параметр Endianness формата : Big
Идентификатор кодека : A_AC3
Продолжительность : 2 ч. 5 м.
Вид битрейта : Постоянный
Битрейт : 640 Кбит/сек
Каналы : 6 каналов
Расположение каналов : Front: L C R, Side: L R, LFE
Частота : 48,0 КГц
Битовая глубина : 16 бит
Метод сжатия : С потерями
Размер потока : 576 Мбайт (6%)
Язык : English
Default : Нет
Forced : Нет
Текст #1
Идентификатор : 9
Формат : UTF-8
Идентификатор кодека : S_TEXT/UTF8
Идентификатор кодека/Информация : UTF-8 Plain Text
Язык : Russian
Default : Нет
Forced : Нет
Текст #2
Идентификатор : 10
Формат : UTF-8
Идентификатор кодека : S_TEXT/UTF8
Идентификатор кодека/Информация : UTF-8 Plain Text
Заголовок : Позитив
Default : Нет
Forced : Нет
Текст #3
Идентификатор : 11
Формат : UTF-8
Идентификатор кодека : S_TEXT/UTF8
Идентификатор кодека/Информация : UTF-8 Plain Text
Язык : English
Default : Нет
Forced : Нет
Меню
00:00:00.000 : en:Chapter 1
00:08:15.112 : en:Chapter 2
00:16:24.684 : en:Chapter 3
00:23:15.311 : en:Chapter 4
00:31:39.147 : en:Chapter 5
00:39:04.625 : en:Chapter 6
00:44:27.248 : en:Chapter 7
00:51:29.286 : en:Chapter 8
00:57:54.421 : en:Chapter 9
01:05:11.691 : en:Chapter 10
01:11:46.585 : en:Chapter 11
01:18:02.795 : en:Chapter 12
01:23:34.292 : en:Chapter 13
01:29:58.894 : en:Chapter 14
01:36:02.590 : en:Chapter 15
01:39:58.660 : en:Chapter 16
01:50:10.637 : en:Chapter 17
01:55:33.343 : en:Chapter 18
02:00:36.346 : en:Chapter 19
-

Скриншоты


-BluRay vs. HDDVD

To download the file disable ad blocking, and reload the page.

disable adblock How to disable ad blocking?

Download by magnet link 9.82 GB Download Torrent

Login using:

Загрузка...

Similar topics

Shutterstock - Shooter / Стрелок
 15 MB   0 | 0   04-Jun-17 17:10   0


   
Current time is: 19-Dec 08:29 :: All times are UTC + 3