Затерянный город Z / The Lost City of Z
Страна: США
Производство: Keep Your Head, MadRiver Pictures, MICA Entertainment, Plan B Entertainment, Sierra Pictures (III)
Год выпуска: 2016
Жанр: боевик, драма, приключения, биография, история
Продолжительность: 02:21:35
Режиссер: Джеймс Грэй
Авторы сценария: Джеймс Грэй, Дэвид Гранн
В ролях: Чарли Ханнэм, Роберт Паттинсон, Сиенна Миллер, Том Холланд, Эдвард Эшли, Энгус МакФадьен, Иен МакДермид, Клайв Фрэнсис
Описание: Эльдорадо, таинственная столица инков, загадочный Город Z… Вымысел или реальность..? В 1925 году экспедиция полковника Фоссета, члена Королевского Географического общества, бесследно исчезла в джунглях Амазонии в поисках Города Z…

Перевод: Профессиональный (полное дублирование) | iTunes
Субтитры: нет

MI

Общее
Уникальный идентификатор : 178741889125027185241536812832774405145 (0x86786F874C1D57CB8CAB41E35A27BC19)
Полное имя : D:The.Lost.City.of.Z.2016.BDRip.1080p.mkv
Формат : Matroska
Версия формата : Version 4 / Version 2
Размер файла : 11,3 Гбайт
Продолжительность : 2 ч. 21 м.
Общий поток : 11,5 Мбит/сек
Дата кодирования : UTC 2017-07-01 05:22:04
Программа кодирования : mkvmerge v13.0.0 ('The Juggler') 64bit
Библиотека кодирования : libebml v1.3.4 + libmatroska v1.4.5
Видео
Идентификатор : 1
Формат : AVC
Формат/Информация : Advanced Video Codec
Профиль формата : High@L4.1
Параметр CABAC формата : Да
Параметр ReFrames формата : 5 кадров
Идентификатор кодека : V_MPEG4/ISO/AVC
Продолжительность : 2 ч. 21 м.
Битрейт : 9572 Кбит/сек
Ширина : 1920 пикселей
Высота : 808 пикселей
Соотношение сторон : 2,40:1
Режим частоты кадров : Постоянный
Частота кадров : 23,976 кадра/сек
Цветовое пространство : YUV
Субдискретизация насыщенности : 4:2:0
Битовая глубина : 8 бит
Тип развёртки : Прогрессивная
Бит/(Пиксели*Кадры) : 0.257
Размер потока : 9,22 Гбайт (81%)
Библиотека кодирования : x264 core 150 r2833 df79067
Настройки программы : cabac=1 / ref=5 / deblock=1:0:0 / analyse=0x3:0x133 / me=umh / subme=7 / psy=1 / psy_rd=1.00:0.00 / mixed_ref=1 / me_range=16 / chroma_me=1 / trellis=1 / 8x8dct=1 / cqm=0 / deadzone=21,11 / fast_pskip=0 / chroma_qp_offset=-2 / threads=25 / lookahead_threads=4 / sliced_threads=0 / nr=0 / decimate=1 / interlaced=0 / bluray_compat=0 / constrained_intra=0 / bframes=3 / b_pyramid=2 / b_adapt=1 / b_bias=0 / direct=1 / weightb=1 / open_gop=0 / weightp=2 / keyint=250 / keyint_min=23 / scenecut=40 / intra_refresh=0 / rc_lookahead=40 / rc=2pass / mbtree=1 / bitrate=9572 / ratetol=1.0 / qcomp=0.60 / qpmin=0 / qpmax=69 / qpstep=4 / cplxblur=20.0 / qblur=0.5 / ip_ratio=1.40 / aq=1:1.00
Язык : English
Default : Да
Forced : Нет
Аудио #1
Идентификатор : 2
Формат : AC-3
Формат/Информация : Audio Coding 3
Расширение режима : CM (complete main)
Параметр Endianness формата : Big
Идентификатор кодека : A_AC3
Продолжительность : 2 ч. 21 м.
Вид битрейта : Постоянный
Битрейт : 384 Кбит/сек
Каналы : 6 каналов
Расположение каналов : Front: L C R, Side: L R, LFE
Частота : 48,0 КГц
Частота кадров : 31,250 кадров/сек (1536 spf)
Битовая глубина : 16 бит
Метод сжатия : С потерями
Размер потока : 388 Мбайт (3%)
Язык : Russian
Default : Да
Forced : Нет
Аудио #2
Идентификатор : 3
Формат : DTS
Формат/Информация : Digital Theater Systems
Режим : 16
Параметр Endianness формата : Big
Идентификатор кодека : A_DTS
Продолжительность : 2 ч. 21 м.
Вид битрейта : Постоянный
Битрейт : 1509 Кбит/сек
Каналы : 6 каналов
Расположение каналов : Front: L C R, Side: L R, LFE
Частота : 48,0 КГц
Частота кадров : 93,750 кадра/сек (512 spf)
Битовая глубина : 24 бит
Метод сжатия : С потерями
Размер потока : 1,49 Гбайт (13%)
Язык : English
Default : Нет
Forced : Нет
Меню
00:00:00.000 : en:00:00:00.000
00:08:21.751 : en:00:08:21.751
00:15:32.849 : en:00:15:32.849
00:21:29.038 : en:00:21:29.038
00:27:10.045 : en:00:27:10.045
00:34:57.637 : en:00:34:57.637
00:44:59.113 : en:00:44:59.113
00:49:36.432 : en:00:49:36.432
00:58:25.919 : en:00:58:25.919
01:04:43.338 : en:01:04:43.338
01:11:10.600 : en:01:11:10.600
01:21:22.294 : en:01:21:22.294
01:27:42.424 : en:01:27:42.424
01:30:42.854 : en:01:30:42.854
01:39:46.230 : en:01:39:46.230
01:43:59.984 : en:01:43:59.984
01:51:40.193 : en:01:51:40.193
01:56:11.089 : en:01:56:11.089
02:01:43.046 : en:02:01:43.046
02:08:34.373 : en:02:08:34.373
-Качество: BDRip 1080p
Формат: МКV
Видео кодек: AVC
Аудио кодек: АС3 | DTS
Видео: 1920x808 (2.40:1), 23.976 fps, MPEG-4 AVC ~9 600 kbps avg
Аудио №1: 48.0 kHz, AC3 Dolby Digital, 3/2 (L,C,R,l,r) + LFE ch, ~384 kbps | RUS / iTunes
Аудио №2: 48.0 kHz, Digital Theater Systems, 3/2 (L,C,R,l,r) + LFE ch, ~1509 kbps | ENG
Дата премьеры (мир): 15 октября 2016
Дата премьеры (РФ): 27 апреля 2017, «Парадиз»

Скриншоты

To download the file disable ad blocking, and reload the page.

disable adblock How to disable ad blocking?

Download by magnet link 11.31 GB Download Torrent

Login using:

Загрузка...

Similar topics



   
Current time is: 19-Dec 00:20 :: All times are UTC + 3