Wolf Alice Жанр: Alternative
Год издания: 2016-2017
Страна: UK
Аудио кодек: aac
Тип рипа: tracks
Битрейт аудио: 256 kbps
Продолжительность: 02:15:06
Источник: iTunes Store
Вшитые тексты: да
Наличие сканов в содержимом раздачи: нет

Albums

2016 - My Love Is Cool (Deluxe Edition) (1:30:39)

Треклист:
01. Turn to Dust [3:08]
02. Bros [3:45]
03. Your Loves Whore [4:57]
04. You're a Germ [2:53]
05. Lisbon [3:26]
06. Silk [4:04]
07. Freazy [3:15]
08. Giant Peach [4:36]
09. Swallowtail [5:41]
10. Soapy Water [3:42]
11. Fluffy [2:44]
12. The Wonderwhy [6:47]
13. Moaning Lisa Smile [2:41]
14. Storms [3:24]
15. Heavenly Creatures [3:18]
16. We're Not the Same [3:05]
17. Blush [4:19]
18. She [3:12]
19. Nosedive [2:47]
20. 90 Mile Beach [3:45]
21. Baby Ain't Made of China [3:37]
22. I Saw You (In a Corridor) [2:43]
23. Every Cloud [2:54]
24. White Leather [2:36]
25. Leaving You [3:19]

26 Freazy

Качество: WEB-DL
Продолжительность: 00:03:17
Формат: MPEG-4
Видео: H.264, 640 x 360, 25.000 fps, 1599 Kbps, без анаморфа
Аудио: Русский (AAC Stereo, 256 Kbps, 48 KHz)

Отчёт MediaInfo

Общее
Полное имя : F:\Мои Раздачи\!iTunes\Wolf Alice\Albums\2016 - My Love Is Cool (Deluxe Edition)\26 Freazy.m4v
Формат : MPEG-4
Идентификатор кодека : M4V (M4V /mp42/isom)
Размер файла : 44,6 Мбайт
Продолжительность : 3 м. 17 с.
Режим общего битрейта : Переменный
Общий поток : 1893 Кбит/сек
Название фильма : Freazy
Альбом : My Love Is Cool (Deluxe Edition)
Альбом/Исполнитель : Wolf Alice
Часть/Положение : 1
Часть/Всего : 1
Трек/Положение : 26
Трек/Всего : 31
Исполнитель : Wolf Alice
Жанр : Альтернативная музыка
Тип содержимого : Music Video
Дата записи : UTC 2016-02-05 08:00:00
Дата кодирования : UTC 2016-01-28 18:05:00
Дата пометки : UTC 2016-01-28 18:05:00
Авторское право : ℗ 2016 Dirty Hit
Обложка : Yes
Оценка : Explicit
ownr : Евгений Степанов
Flavour : 8:480p
PurchaseDate : 2017-06-28 21:41:18
ITUNEXTC : ||0|
Видео
Идентификатор : 1
Формат : AVC
Формат/Информация : Advanced Video Codec
Профиль формата : Main@L3
Параметр CABAC формата : Нет
Параметр ReFrames формата : 2 кадра
Параметр GOP формата : M=2, N=90
Идентификатор кодека : avc1
Идентификатор кодека/Информация : Advanced Video Coding
Продолжительность : 3 м. 17 с.
Битрейт : 1599 Кбит/сек
Ширина : 640 пикселей
Высота : 360 пикселей
Соотношение сторон : 16:9
Режим частоты кадров : Постоянный
Частота кадров : 25,000 кадров/сек
Цветовое пространство : YUV
Субдискретизация насыщенности : 4:2:0
Битовая глубина : 8 бит
Тип развёртки : Прогрессивная
Бит/(Пиксели*Кадры) : 0.278
Размер потока : 37,7 Мбайт (84%)
Заголовок : Core Media Video
Язык : English
Дата кодирования : UTC 2016-01-28 18:05:00
Дата пометки : UTC 2016-01-28 18:05:00
Цветовой диапазон : Limited
Основные цвета : BT.709
Характеристики трансфера : BT.709
Коэффициенты матрицы : BT.709
Аудио
Идентификатор : 2
Формат : AAC
Формат/Информация : Advanced Audio Codec
Профиль формата : LC
Идентификатор кодека : 40
Продолжительность : 3 м. 17 с.
Продолжительность оригинала : 3 м. 17 с.
Вид битрейта : Переменный
Битрейт : 256 Кбит/сек
Максимальный битрейт : 309 Кбит/сек
Каналы : 2 канала
Расположение каналов : Front: L R
Частота : 48,0 КГц
Частота кадров : 46,875 кадров/сек (1024 spf)
Метод сжатия : С потерями
Размер потока : 5,80 Мбайт (13%)
Размер потока оригинала : 5,80 Мбайт (13%)
Заголовок : Core Media Audio
Язык : English
Дата кодирования : UTC 2016-01-28 18:05:00
Дата пометки : UTC 2016-01-28 18:05:00

Скриншоты

27 You're a Germ

Качество: WEB-DL
Продолжительность: 00:02:51
Формат: MPEG-4
Видео: H.264, 640 x 360, 25,000 fps, 1 553 Kbps, без анаморфа
Аудио: Русский (AAC Stereo, 256 Kbps, 48 KHz)

Отчёт MediaInfo

Общее
Полное имя : F:\Мои Раздачи\!iTunes\Wolf Alice\Albums\2016 - My Love Is Cool (Deluxe Edition)\27 You're a Germ.m4v
Формат : MPEG-4
Идентификатор кодека : M4V (M4V /mp42/isom)
Размер файла : 36,5 Мбайт
Продолжительность : 2 м. 51 с.
Режим общего битрейта : Переменный
Общий поток : 1782 Кбит/сек
Название фильма : You're a Germ
Альбом : My Love Is Cool (Deluxe Edition)
Альбом/Исполнитель : Wolf Alice
Часть/Положение : 1
Часть/Всего : 1
Трек/Положение : 27
Трек/Всего : 31
Исполнитель : Wolf Alice
Жанр : Альтернативная музыка
Тип содержимого : Music Video
Дата записи : UTC 2016-02-05 08:00:00
Дата кодирования : UTC 2016-01-28 18:02:08
Дата пометки : UTC 2016-01-28 18:02:08
Авторское право : ℗ 2016 Dirty Hit
Обложка : Yes
Оценка : None
ownr : Евгений Степанов
Flavour : 8:480p
PurchaseDate : 2017-06-28 21:41:18
ITUNEXTC : ||0|
Видео
Идентификатор : 1
Формат : AVC
Формат/Информация : Advanced Video Codec
Профиль формата : Main@L3
Параметр CABAC формата : Нет
Параметр ReFrames формата : 2 кадра
Параметр GOP формата : M=2, N=90
Идентификатор кодека : avc1
Идентификатор кодека/Информация : Advanced Video Coding
Продолжительность : 2 м. 51 с.
Битрейт : 1476 Кбит/сек
Ширина : 640 пикселей
Высота : 360 пикселей
Соотношение сторон : 16:9
Режим частоты кадров : Постоянный
Частота кадров : 23,976 (23976/1000) кадра/сек
Цветовое пространство : YUV
Субдискретизация насыщенности : 4:2:0
Битовая глубина : 8 бит
Тип развёртки : Прогрессивная
Бит/(Пиксели*Кадры) : 0.267
Размер потока : 30,2 Мбайт (83%)
Заголовок : Core Media Video
Язык : English
Дата кодирования : UTC 2016-01-28 18:02:08
Дата пометки : UTC 2016-01-28 18:02:08
Цветовой диапазон : Limited
Основные цвета : BT.709
Характеристики трансфера : BT.709
Коэффициенты матрицы : BT.709
Аудио
Идентификатор : 2
Формат : AAC
Формат/Информация : Advanced Audio Codec
Профиль формата : LC
Идентификатор кодека : 40
Продолжительность : 2 м. 51 с.
Продолжительность оригинала : 2 м. 51 с.
Вид битрейта : Переменный
Битрейт : 256 Кбит/сек
Максимальный битрейт : 388 Кбит/сек
Каналы : 2 канала
Расположение каналов : Front: L R
Частота : 48,0 КГц
Частота кадров : 46,875 кадров/сек (1024 spf)
Метод сжатия : С потерями
Размер потока : 5,16 Мбайт (14%)
Размер потока оригинала : 5,16 Мбайт (14%)
Заголовок : Core Media Audio
Язык : English
Дата кодирования : UTC 2016-01-28 18:02:08
Дата пометки : UTC 2016-01-28 18:02:08

Скриншоты

28 Bros

Качество: WEB-DL
Продолжительность: 00:03:45
Формат: MPEG-4
Видео: H.264, 640 x 266, 25,000 fps, 1531 Кбит/сек Kbps, без анаморфа
Аудио: Русский (AAC Stereo, 256 Kbps, 48 KHz)

Отчёт MediaInfo

Общее
Полное имя : F:\Мои Раздачи\!iTunes\Wolf Alice\Albums\2016 - My Love Is Cool (Deluxe Edition)\28 Bros.m4v
Формат : MPEG-4
Идентификатор кодека : M4V (M4V /mp42/isom)
Размер файла : 48,9 Мбайт
Продолжительность : 3 м. 45 с.
Режим общего битрейта : Переменный
Общий поток : 1821 Кбит/сек
Название фильма : Bros
Альбом : My Love Is Cool (Deluxe Edition)
Альбом/Исполнитель : Wolf Alice
Часть/Положение : 1
Часть/Всего : 1
Трек/Положение : 28
Трек/Всего : 31
Исполнитель : Wolf Alice
Жанр : Альтернативная музыка
Тип содержимого : Music Video
Дата записи : UTC 2016-02-05 08:00:00
Дата кодирования : UTC 2016-01-28 18:01:52
Дата пометки : UTC 2016-01-28 18:01:52
Авторское право : ℗ 2016 Dirty Hit
Обложка : Yes
Оценка : None
ownr : Евгений Степанов
Flavour : 8:480p
PurchaseDate : 2017-06-28 21:41:18
ITUNEXTC : ||0|
Видео
Идентификатор : 1
Формат : AVC
Формат/Информация : Advanced Video Codec
Профиль формата : Main@L3
Параметр CABAC формата : Нет
Параметр ReFrames формата : 2 кадра
Параметр GOP формата : M=2, N=90
Идентификатор кодека : avc1
Идентификатор кодека/Информация : Advanced Video Coding
Продолжительность : 3 м. 45 с.
Битрейт : 1531 Кбит/сек
Ширина : 640 пикселей
Высота : 266 пикселей
Соотношение сторон : 2,40:1
Режим частоты кадров : Постоянный
Частота кадров : 25,000 кадров/сек
Цветовое пространство : YUV
Субдискретизация насыщенности : 4:2:0
Битовая глубина : 8 бит
Тип развёртки : Прогрессивная
Бит/(Пиксели*Кадры) : 0.360
Размер потока : 41,1 Мбайт (84%)
Заголовок : Core Media Video
Язык : English
Дата кодирования : UTC 2016-01-28 18:01:52
Дата пометки : UTC 2016-01-28 18:01:52
Цветовой диапазон : Limited
Основные цвета : BT.709
Характеристики трансфера : BT.709
Коэффициенты матрицы : BT.709
Аудио
Идентификатор : 2
Формат : AAC
Формат/Информация : Advanced Audio Codec
Профиль формата : LC
Идентификатор кодека : 40
Продолжительность : 3 м. 45 с.
Продолжительность оригинала : 3 м. 45 с.
Вид битрейта : Переменный
Битрейт : 256 Кбит/сек
Максимальный битрейт : 356 Кбит/сек
Каналы : 2 канала
Расположение каналов : Front: L R
Частота : 48,0 КГц
Частота кадров : 46,875 кадров/сек (1024 spf)
Метод сжатия : С потерями
Размер потока : 6,66 Мбайт (14%)
Размер потока оригинала : 6,66 Мбайт (14%)
Заголовок : Core Media Audio
Язык : English
Дата кодирования : UTC 2016-01-28 18:01:52
Дата пометки : UTC 2016-01-28 18:01:52

Скриншоты

29 Giant Peach

Качество: WEB-DL
Продолжительность: 00:04:34
Формат: MPEG-4
Видео: H.264, 640 x 260, 25,000 fps, 1 493 Kbps, без анаморфа
Аудио: Русский (AAC Stereo, 256 Kbps, 48 KHz)

Отчёт MediaInfo

Общее
Полное имя : F:\Мои Раздачи\!iTunes\Wolf Alice\Albums\2016 - My Love Is Cool (Deluxe Edition)\29 Giant Peach.m4v
Формат : MPEG-4
Идентификатор кодека : M4V (M4V /mp42/isom)
Размер файла : 59,2 Мбайт
Продолжительность : 4 м. 34 с.
Режим общего битрейта : Переменный
Общий поток : 1811 Кбит/сек
Название фильма : Giant Peach
Альбом : My Love Is Cool (Deluxe Edition)
Альбом/Исполнитель : Wolf Alice
Часть/Положение : 1
Часть/Всего : 1
Трек/Положение : 29
Трек/Всего : 31
Исполнитель : Wolf Alice
Жанр : Альтернативная музыка
Тип содержимого : Music Video
Дата записи : UTC 2016-02-05 08:00:00
Дата кодирования : UTC 2016-01-28 18:02:21
Дата пометки : UTC 2016-01-28 18:02:22
Авторское право : ℗ 2016 Dirty Hit
Обложка : Yes
Оценка : None
ownr : Евгений Степанов
Flavour : 8:480p
PurchaseDate : 2017-06-28 21:41:18
ITUNEXTC : ||0|
Видео
Идентификатор : 1
Формат : AVC
Формат/Информация : Advanced Video Codec
Профиль формата : Main@L3
Параметр CABAC формата : Нет
Параметр ReFrames формата : 2 кадра
Параметр GOP формата : M=2, N=90
Идентификатор кодека : avc1
Идентификатор кодека/Информация : Advanced Video Coding
Продолжительность : 4 м. 34 с.
Битрейт : 1526 Кбит/сек
Ширина : 640 пикселей
Высота : 260 пикселей
Соотношение сторон : 2,462
Режим частоты кадров : Постоянный
Частота кадров : 25,000 кадров/сек
Цветовое пространство : YUV
Субдискретизация насыщенности : 4:2:0
Битовая глубина : 8 бит
Тип развёртки : Прогрессивная
Бит/(Пиксели*Кадры) : 0.367
Размер потока : 49,9 Мбайт (84%)
Заголовок : Core Media Video
Язык : English
Дата кодирования : UTC 2016-01-28 18:02:21
Дата пометки : UTC 2016-01-28 18:02:22
Цветовой диапазон : Limited
Основные цвета : BT.709
Характеристики трансфера : BT.709
Коэффициенты матрицы : BT.709
Аудио
Идентификатор : 2
Формат : AAC
Формат/Информация : Advanced Audio Codec
Профиль формата : LC
Идентификатор кодека : 40
Продолжительность : 4 м. 34 с.
Продолжительность оригинала : 4 м. 34 с.
Вид битрейта : Переменный
Битрейт : 256 Кбит/сек
Максимальный битрейт : 400 Кбит/сек
Каналы : 2 канала
Расположение каналов : Front: L R
Частота : 48,0 КГц
Частота кадров : 46,875 кадров/сек (1024 spf)
Метод сжатия : С потерями
Размер потока : 8,14 Мбайт (14%)
Размер потока оригинала : 8,14 Мбайт (14%)
Заголовок : Core Media Audio
Язык : English
Дата кодирования : UTC 2016-01-28 18:02:21
Дата пометки : UTC 2016-01-28 18:02:22

Скриншоты

30 Moaning Lisa Smile

Качество: WEB-DL
Продолжительность: 00:02:48
Формат: MPEG-4
Видео: H.264, 640 x 272, 25,000 fps, 1 533 Kbps, без анаморфа
Аудио: Русский (AAC Stereo, 256 Kbps, 48 KHz)

Отчёт MediaInfo

Общее
Полное имя : F:\Мои Раздачи\!iTunes\Wolf Alice\Albums\2016 - My Love Is Cool (Deluxe Edition)\30 Moaning Lisa Smile.m4v
Формат : MPEG-4
Идентификатор кодека : M4V (M4V /mp42/isom)
Размер файла : 36,6 Мбайт
Продолжительность : 2 м. 48 с.
Режим общего битрейта : Переменный
Общий поток : 1819 Кбит/сек
Название фильма : Moaning Lisa Smile
Альбом : My Love Is Cool (Deluxe Edition)
Альбом/Исполнитель : Wolf Alice
Часть/Положение : 1
Часть/Всего : 1
Трек/Положение : 30
Трек/Всего : 31
Исполнитель : Wolf Alice
Жанр : Альтернативная музыка
Тип содержимого : Music Video
Дата записи : UTC 2016-02-05 08:00:00
Дата кодирования : UTC 2016-01-28 18:00:04
Дата пометки : UTC 2016-01-28 18:00:04
Авторское право : ℗ 2016 Dirty Hit
Обложка : Yes
Оценка : None
ownr : Евгений Степанов
Flavour : 8:480p
PurchaseDate : 2017-06-28 21:41:18
ITUNEXTC : ||0|
Видео
Идентификатор : 1
Формат : AVC
Формат/Информация : Advanced Video Codec
Профиль формата : Main@L3
Параметр CABAC формата : Нет
Параметр ReFrames формата : 2 кадра
Параметр GOP формата : M=2, N=90
Идентификатор кодека : avc1
Идентификатор кодека/Информация : Advanced Video Coding
Продолжительность : 2 м. 48 с.
Битрейт : 1519 Кбит/сек
Ширина : 640 пикселей
Высота : 272 пикселя
Соотношение сторон : 2,35:1
Режим частоты кадров : Постоянный
Частота кадров : 25,000 кадров/сек
Цветовое пространство : YUV
Субдискретизация насыщенности : 4:2:0
Битовая глубина : 8 бит
Тип развёртки : Прогрессивная
Бит/(Пиксели*Кадры) : 0.349
Размер потока : 30,6 Мбайт (83%)
Заголовок : Core Media Video
Язык : English
Дата кодирования : UTC 2016-01-28 18:00:04
Дата пометки : UTC 2016-01-28 18:00:04
Цветовой диапазон : Limited
Основные цвета : BT.709
Характеристики трансфера : BT.709
Коэффициенты матрицы : BT.709
Аудио
Идентификатор : 2
Формат : AAC
Формат/Информация : Advanced Audio Codec
Профиль формата : LC
Идентификатор кодека : 40
Продолжительность : 2 м. 48 с.
Продолжительность оригинала : 2 м. 48 с.
Вид битрейта : Переменный
Битрейт : 256 Кбит/сек
Максимальный битрейт : 356 Кбит/сек
Каналы : 2 канала
Расположение каналов : Front: L R
Частота : 48,0 КГц
Частота кадров : 46,875 кадров/сек (1024 spf)
Метод сжатия : С потерями
Размер потока : 4,94 Мбайт (13%)
Размер потока оригинала : 4,94 Мбайт (13%)
Заголовок : Core Media Audio
Язык : English
Дата кодирования : UTC 2016-01-28 18:00:04
Дата пометки : UTC 2016-01-28 18:00:04

Скриншоты

31 Fluffy

Качество: WEB-DL
Продолжительность: 00:03:16
Формат: MPEG-4
Видео: H.264, 640 x 360, 25,000 fps, 1 533 Kbps, без анаморфа
Аудио: Русский (AAC Stereo, 256 Kbps, 48 KHz)

Отчёт MediaInfo

Общее
Полное имя : F:\Мои Раздачи\!iTunes\Wolf Alice\Albums\2016 - My Love Is Cool (Deluxe Edition)\31 Fluffy.m4v
Формат : MPEG-4
Идентификатор кодека : M4V (M4V /mp42/isom)
Размер файла : 43,2 Мбайт
Продолжительность : 3 м. 16 с.
Режим общего битрейта : Переменный
Общий поток : 1839 Кбит/сек
Название фильма : Fluffy
Альбом : My Love Is Cool (Deluxe Edition)
Альбом/Исполнитель : Wolf Alice
Часть/Положение : 1
Часть/Всего : 1
Трек/Положение : 31
Трек/Всего : 31
Исполнитель : Wolf Alice
Жанр : Альтернативная музыка
Тип содержимого : Music Video
Дата записи : UTC 2016-02-05 08:00:00
Дата кодирования : UTC 2016-01-28 18:02:59
Дата пометки : UTC 2016-01-28 18:02:59
Авторское право : ℗ 2016 Dirty Hit
Обложка : Yes
Оценка : None
ownr : Евгений Степанов
Flavour : 8:480p
PurchaseDate : 2017-06-28 21:41:18
ITUNEXTC : ||0|
Видео
Идентификатор : 1
Формат : AVC
Формат/Информация : Advanced Video Codec
Профиль формата : Main@L3
Параметр CABAC формата : Нет
Параметр ReFrames формата : 2 кадра
Параметр GOP формата : M=2, N=90
Идентификатор кодека : avc1
Идентификатор кодека/Информация : Advanced Video Coding
Продолжительность : 3 м. 16 с.
Битрейт : 1542 Кбит/сек
Ширина : 640 пикселей
Высота : 360 пикселей
Соотношение сторон : 16:9
Режим частоты кадров : Постоянный
Частота кадров : 25,000 кадров/сек
Цветовое пространство : YUV
Субдискретизация насыщенности : 4:2:0
Битовая глубина : 8 бит
Тип развёртки : Прогрессивная
Бит/(Пиксели*Кадры) : 0.268
Размер потока : 36,2 Мбайт (84%)
Заголовок : Core Media Video
Язык : English
Дата кодирования : UTC 2016-01-28 18:02:59
Дата пометки : UTC 2016-01-28 18:02:59
Цветовой диапазон : Limited
Основные цвета : BT.709
Характеристики трансфера : BT.709
Коэффициенты матрицы : BT.709
Аудио
Идентификатор : 2
Формат : AAC
Формат/Информация : Advanced Audio Codec
Профиль формата : LC
Идентификатор кодека : 40
Продолжительность : 3 м. 16 с.
Продолжительность оригинала : 3 м. 16 с.
Вид битрейта : Переменный
Битрейт : 256 Кбит/сек
Максимальный битрейт : 418 Кбит/сек
Каналы : 2 канала
Расположение каналов : Front: L R
Частота : 48,0 КГц
Частота кадров : 46,875 кадров/сек (1024 spf)
Метод сжатия : С потерями
Размер потока : 5,86 Мбайт (14%)
Размер потока оригинала : 5,86 Мбайт (14%)
Заголовок : Core Media Audio
Язык : English
Дата кодирования : UTC 2016-01-28 18:02:59
Дата пометки : UTC 2016-01-28 18:02:59

Скриншоты

EP's, singles

2013 - Blush EP (14:03)

Треклист:
01. Blush [4:19]
02. She [3:12]
03. Nosedive [2:47]
04. 90 Mile Beach [3:45]

2013 - Bros - Single (6:57)

Треклист:
01. Bros [4:03] [256 kbps]
02. Every Cloud [2:54] [264 kbps]

2013 - Fluffy - Single (5:33)

Треклист:
01. Fluffy [2:57]
02. White Leather [2:36]

2014 - Creature Songs EP (12:28)

Треклист:
01. Moaning Lisa Smile [2:41]
02. Storms [3:24]
03. Heavenly Creatures [3:18]
04. We're Not the Same [3:05]

2014 - She - Single (3:12)

Треклист:
01. She [3:12]

2017 - Yuk Foo - Single [Mastered for iTunes] (2:14)

Треклист:
01. Yuk Foo [2:14]

To download the file disable ad blocking, and reload the page.

disable adblock How to disable ad blocking?

Download by magnet link 543 MB Download Torrent

Login using:

Загрузка...

Similar topics



   
Current time is: 19-Dec 00:56 :: All times are UTC + 3