ПобегThe Getaway«A dangerous deal. A double cross. And the ultimate set up is yet to come»- Страна: США, Япония
Жанр: боевик, триллер, драма, мелодрама, криминал, приключения
Год выпуска: 1994
Продолжительность: 01:55:14
Перевод: 2 x Профессиональный (многоголосый, закадровый), 4 x Авторский, 2 x Любительский
Субтитры: русские, английские.-Режиссер: Роджер Дональдсон / Roger Donaldson-В ролях: Алек Болдуин (Carter «Doc» McCoy), Ким Бейсингер (Carol McCoy), Майкл Мэдсен (Rudy Travis), Джеймс Вудс (Jack Benyon), Дэвид Морс (Jim Deer Jackson), Дженнифер Тилли (Fran Carvey), Джеймс Стивенс (Harold Carvey, DVM), Ричард Фарнсуорт (Slim), Филип Сеймур Хоффман (Frank Hansen), Бертон Гиллиам (Gollie), Ройс Д. Эпплгейт (Gun Shop Salesman), Дэниэл Вильярреаль (Luis Mendoza)-Описание: Профессиональный взломщик сейфов Док МакКой помог молодому преступнику-мексиканцу сбежать из-за решетки, доставил парня его дяде, но не почувствовал, откуда грозит настоящая опасность, и в результате сам попал в тюрьму. Спустя некоторое время Кэрол МакКой, жена Дока, переспала с продажным инспектором Джеком Беньоном, и тот поспособствовал досрочному освобождению «медвежатника».-
MPAA: R - Лицам до 17 лет обязательно присутствие взрослого-Семпл- -Качество: BDRip 1080p
Контейнер: MKV
Видео: AVC, 1920x816 (2.35:1), 11674 kbps, 23,976 fps, 0,311 bpp
Аудио №1: русский / AC3 / 2.0 / 48 kHz / 192 kbps / MVO
Аудио №2: русский / AC3 / 2.0 / 48 kHz / 192 kbps / MVO ( т/к Че )
Аудио №3: русский / AC3 / 5.1 / 48 kHz / 384 kbps / AVO ( Гаврилов )
Аудио №4: русский / AC3 / 5.1 / 48 kHz / 448 kbps / AVO ( Живов )
Аудио №5: русский / AC3 / 2.0 / 48 kHz / 192 kbps / AVO ( Дольский )
Аудио №6: русский / AC3 / 2.0 / 48 kHz / 192 kbps / AVO ( Махонько )
Аудио №7: русский / AC3 / 5.1 / 48 kHz / 448 kbps / VO ( Яроцкий (kyberpunk) (ненормативная лексика))
Аудио №8: русский / AC3 / 2.0 / 48 kHz / 192 kbps / VO ( неизвестный )
Аудио №9: английский / AC3 / 5.1 / 48 kHz / 640 kbps
Навигация по главам: есть-
-

Media Info

Формат : Matroska
Версия формата : Version 2
Размер файла : 12,0 Гбайт
Продолжительность : 1 ч. 55 м.
Общий поток : 14,9 Мбит/сек
Название фильма : = Побег / The Getaway (1994) BDRip 1080p - KORSAR =
Дата кодирования : UTC 2017-06-30 22:21:24
Программа кодирования : mkvmerge v5.8.0 ('No Sleep / Pillow') built on Sep 2 2012 15:37:04
Библиотека кодирования : libebml v1.2.3 + libmatroska v1.3.0
Attachment : Yes
Видео
Идентификатор : 1
Формат : AVC
Формат/Информация : Advanced Video Codec
Профиль формата : High@L4.1
Параметр CABAC формата : Да
Параметр ReFrames формата : 5 кадров
Идентификатор кодека : V_MPEG4/ISO/AVC
Продолжительность : 1 ч. 55 м.
Битрейт : 11,7 Мбит/сек
Ширина : 1920 пикселей
Высота : 816 пикселей
Соотношение сторон : 2,35:1
Режим частоты кадров : Постоянный
Частота кадров : 23,976 кадра/сек
Цветовое пространство : YUV
Субдискретизация насыщенности : 4:2:0
Битовая глубина : 8 бит
Тип развёртки : Прогрессивная
Бит/(Пиксели*Кадры) : 0.311
Размер потока : 9,40 Гбайт (79%)
Заголовок : Побег / The Getaway (1994) BDRip 1080p - KORSAR
Библиотека кодирования : x264 core 146 r2538 121396c
Настройки программы : cabac=1 / ref=5 / deblock=1:-2:-2 / analyse=0x3:0x113 / me=umh / subme=11 / psy=1 / psy_rd=1.00:0.05 / mixed_ref=1 / me_range=32 / chroma_me=1 / trellis=2 / 8x8dct=1 / cqm=0 / deadzone=21,11 / fast_pskip=0 / chroma_qp_offset=-3 / threads=12 / lookahead_threads=3 / sliced_threads=0 / nr=0 / decimate=1 / interlaced=0 / bluray_compat=0 / constrained_intra=0 / bframes=10 / b_pyramid=2 / b_adapt=2 / b_bias=0 / direct=3 / weightb=1 / open_gop=0 / weightp=2 / keyint=240 / keyint_min=23 / scenecut=40 / intra_refresh=0 / rc=crf / mbtree=0 / crf=18.0 / qcomp=0.60 / qpmin=0 / qpmax=69 / qpstep=4 / ip_ratio=1.40 / pb_ratio=1.30 / aq=2:0.80
Язык : English
Default : Да
Forced : Нет
Основные цвета : BT.709
Характеристики трансфера : BT.709
Коэффициенты матрицы : BT.709
Аудио #1
Идентификатор : 2
Формат : AC-3
Формат/Информация : Audio Coding 3
Расширение режима : CM (complete main)
Параметр Endianness формата : Big
Идентификатор кодека : A_AC3
Продолжительность : 1 ч. 55 м.
Вид битрейта : Постоянный
Битрейт : 192 Кбит/сек
Каналы : 2 канала
Расположение каналов : Front: L R
Частота : 48,0 КГц
Битовая глубина : 16 бит
Метод сжатия : С потерями
Размер потока : 158 Мбайт (1%)
Заголовок : MVO
Язык : Russian
Default : Да
Forced : Нет
Аудио #2
Идентификатор : 3
Формат : AC-3
Формат/Информация : Audio Coding 3
Расширение режима : CM (complete main)
Параметр Endianness формата : Big
Идентификатор кодека : A_AC3
Продолжительность : 1 ч. 55 м.
Вид битрейта : Постоянный
Битрейт : 192 Кбит/сек
Каналы : 2 канала
Расположение каналов : Front: L R
Частота : 48,0 КГц
Битовая глубина : 16 бит
Метод сжатия : С потерями
Размер потока : 158 Мбайт (1%)
Заголовок : MVO ( т/к Че )
Язык : Russian
Default : Нет
Forced : Нет
Аудио #3
Идентификатор : 4
Формат : AC-3
Формат/Информация : Audio Coding 3
Расширение режима : CM (complete main)
Параметр Endianness формата : Big
Идентификатор кодека : A_AC3
Продолжительность : 1 ч. 55 м.
Вид битрейта : Постоянный
Битрейт : 384 Кбит/сек
Каналы : 6 каналов
Расположение каналов : Front: L C R, Side: L R, LFE
Частота : 48,0 КГц
Битовая глубина : 16 бит
Метод сжатия : С потерями
Размер потока : 317 Мбайт (3%)
Заголовок : AVO ( Гаврилов )
Язык : Russian
Default : Нет
Forced : Нет
Аудио #4
Идентификатор : 5
Формат : AC-3
Формат/Информация : Audio Coding 3
Расширение режима : CM (complete main)
Параметр Endianness формата : Big
Идентификатор кодека : A_AC3
Продолжительность : 1 ч. 55 м.
Вид битрейта : Постоянный
Битрейт : 448 Кбит/сек
Каналы : 6 каналов
Расположение каналов : Front: L C R, Side: L R, LFE
Частота : 48,0 КГц
Битовая глубина : 16 бит
Метод сжатия : С потерями
Размер потока : 369 Мбайт (3%)
Заголовок : AVO ( Живов )
Язык : Russian
Default : Нет
Forced : Нет
Аудио #5
Идентификатор : 6
Формат : AC-3
Формат/Информация : Audio Coding 3
Расширение режима : CM (complete main)
Параметр Endianness формата : Big
Идентификатор кодека : A_AC3
Продолжительность : 1 ч. 55 м.
Вид битрейта : Постоянный
Битрейт : 192 Кбит/сек
Каналы : 2 канала
Расположение каналов : Front: L R
Частота : 48,0 КГц
Битовая глубина : 16 бит
Метод сжатия : С потерями
Размер потока : 158 Мбайт (1%)
Заголовок : AVO ( Дольский )
Язык : Russian
Default : Нет
Forced : Нет
Аудио #6
Идентификатор : 7
Формат : AC-3
Формат/Информация : Audio Coding 3
Расширение режима : CM (complete main)
Параметр Endianness формата : Big
Идентификатор кодека : A_AC3
Продолжительность : 1 ч. 55 м.
Вид битрейта : Постоянный
Битрейт : 192 Кбит/сек
Каналы : 2 канала
Расположение каналов : Front: L R
Частота : 48,0 КГц
Битовая глубина : 16 бит
Метод сжатия : С потерями
Размер потока : 158 Мбайт (1%)
Заголовок : AVO ( Махонько )
Язык : Russian
Default : Нет
Forced : Нет
Аудио #7
Идентификатор : 8
Формат : AC-3
Формат/Информация : Audio Coding 3
Расширение режима : CM (complete main)
Параметр Endianness формата : Big
Идентификатор кодека : A_AC3
Продолжительность : 1 ч. 55 м.
Вид битрейта : Постоянный
Битрейт : 448 Кбит/сек
Каналы : 6 каналов
Расположение каналов : Front: L C R, Side: L R, LFE
Частота : 48,0 КГц
Битовая глубина : 16 бит
Метод сжатия : С потерями
Размер потока : 369 Мбайт (3%)
Заголовок : VO ( Яроцкий (kyberpunk) (ненормативная лексика))
Язык : Russian
Default : Нет
Forced : Нет
Аудио #8
Идентификатор : 9
Формат : AC-3
Формат/Информация : Audio Coding 3
Расширение режима : CM (complete main)
Параметр Endianness формата : Big
Идентификатор кодека : A_AC3
Продолжительность : 1 ч. 55 м.
Вид битрейта : Постоянный
Битрейт : 192 Кбит/сек
Каналы : 2 канала
Расположение каналов : Front: L R
Частота : 48,0 КГц
Битовая глубина : 16 бит
Метод сжатия : С потерями
Размер потока : 158 Мбайт (1%)
Заголовок : VO ( неизвестный )
Язык : Russian
Default : Нет
Forced : Нет
Аудио #9
Идентификатор : 10
Формат : AC-3
Формат/Информация : Audio Coding 3
Расширение режима : CM (complete main)
Параметр Endianness формата : Big
Идентификатор кодека : A_AC3
Продолжительность : 1 ч. 55 м.
Вид битрейта : Постоянный
Битрейт : 640 Кбит/сек
Каналы : 6 каналов
Расположение каналов : Front: L C R, Side: L R, LFE
Частота : 48,0 КГц
Битовая глубина : 16 бит
Метод сжатия : С потерями
Размер потока : 528 Мбайт (4%)
Язык : English
Default : Нет
Forced : Нет
Текст #1
Идентификатор : 11
Формат : UTF-8
Идентификатор кодека : S_TEXT/UTF8
Идентификатор кодека/Информация : UTF-8 Plain Text
Язык : Russian
Default : Нет
Forced : Нет
Текст #2
Идентификатор : 12
Формат : UTF-8
Идентификатор кодека : S_TEXT/UTF8
Идентификатор кодека/Информация : UTF-8 Plain Text
Язык : English
Default : Нет
Forced : Нет
Меню
00:00:00.000 : en:00:00:00.000
00:11:39.449 : en:00:11:39.449
00:20:50.416 : en:00:20:50.416
00:31:29.137 : en:00:31:29.137
00:41:40.289 : en:00:41:40.289
00:51:45.477 : en:00:51:45.477
01:02:03.803 : en:01:02:03.803
01:12:46.153 : en:01:12:46.153
01:22:44.960 : en:01:22:44.960
01:32:42.223 : en:01:32:42.223
01:44:10.077 : en:01:44:10.077
01:51:41.653 : en:01:51:41.653
-

Дополнительная информация

Исходник - немецкий BluRay. К сожалению "великолепную битву" в постели между герром Болдуином и фрау Бейсингер просто тупо вырезали. Если бы на месте фрау Бейсингер оказался какой-нибудь волосатый герр, то наверно фильм бы цензурщики сделали от 6 лет и старше.-За дороги ОГРОМНОЕ СПАСИБО: mister55555, edich2, ale_x2008, cinemasonar, JUSTKANT, d_rocker, Fikaloid, kyberpunk1, K.A.F..

To download the file disable ad blocking, and reload the page.

disable adblock How to disable ad blocking?

Download by magnet link 11.95 GB Download Torrent

Login using:

Загрузка...

Similar topics

Побег / The Getaway (1994) BDRip 720p | P, A
 8.12 GB   1 | 0   16-Nov-17 02:30   0


   
Current time is: 19-Dec 00:11 :: All times are UTC + 3