Сплит / Split
«Внутри Кевина живут 23 личности. Вскоре еще одна явит себя миру»
6.862 / 10 7.30 / 10
- Год выпуска: 2016
Страна: США
Жанр: Ужасы, триллер
Продолжительность: 01:57:07
Перевод: Дублированный (iTunes)
Оригинальная аудиодорожка: Есть
Cубтитры: Русские, Английские
Режиссёр: М. Найт Шьямалан
Сценарий: М. Найт Шьямалан
Продюсер: Марк Бьенсток, Джейсон Блум, Дом Катанцарите
Оператор: Майк Гиулакис
Композитор: Уэст Дилан Тордсон
Художник: Мара ЛеПере-Шлуп, Джесси Розенталь, Пако Дельгадо
Монтаж: Люк Франко Чьярокки
В ролях: Джеймс МакЭвой, Аня Тейлор-Джой, Бетти Бакли, Хейли Лу Ричардсон, Джессика Сула, Иззи Коффи, Брэд Уильям Хенке, Себастьян Арселус, Нил Хафф, Уки Вашингтон
Бюджет: $9 000 000
Сборы в США: $138 141 585
Сборы в мире: + $138 780 413 = $276 921 998
Сборы в России: $10 114 917
Мировая премьера: 26 сентября 2016
Премьера (РФ): 16 марта 2017, «UPI»
Релиз на DVD: 26 июня 2017, «НД Плэй»
Релиз на Blu-Ray: 26 июня 2017, «НД Плэй»
Описание: Cредь бела дня с многолюдной парковки незнакомец похищает трёх школьниц. Они приходят в себя в закрытом помещении, а в душе владельца таятся 23 лика страха. Сменяя друг друга, личности ведут обычную для них жизнь — работают и ходят к психотерапевту, периодически напоминая пленницам, что они дожидаются 24-ю личность, которая скоро явит себя миру.-Качество исходника: BDRemux (HDClub)
Качество: BDRip
Тип: HD (1080p)
Контейнер: M4V
Видео: H.264, 1920x800, 2.40:1, 8 000 Kbps, 23.976 (24000/1001) fps
Аудио 1: Русский/Дублированный (iTunes), AAC / 2.0 / 160 / 48.0 KHz
Аудио 2: Английский/Оригинальная дорожка , AAC / 2.0 / 160 / 48.0 KHz
Аудио 3: Русский/Дублированный (iTunes), AC-3 / 5.1 / 384 Kbps / 48.0 KHz
Аудио 4: Английский/Оригинальная дорожка , AC-3 / 5.1 / 640 Kbps / 48.0 KHz
Субтитры 1: Русские полные
Субтитры 2: Английские полные
-

iTunes Meta Tags

Sort Name: Split
XID: Apple:vendor_id:2016-930534
contentID: 1189252846
Copyright: © 2017 Universal Studios. All Rights Reserved.
Screenwriters: М. Найт Шьямалан
Producers: Марк Бьенсток, Джейсон Блум, Дом Катанцарите
Director: М. Найт Шьямалан
Cast: Джеймс МакЭвой, Аня Тейлор-Джой, Бетти Бакли, Хейли Лу Ричардсон, Джессика Сула, Иззи Коффи, Брэд Уильям Хенке, Себастьян Арселус, Нил Хафф, Уки Вашингтон, Сергей Смирнов, Элиза Мартиросова, Марина Тарасова, Лина Иванова, Александра Курагина
Studio: Universal Pictures
Rating: 4
Long Description: Cредь бела дня с многолюдной парковки незнакомец похищает трёх школьниц. Они приходят в себя в закрытом помещении, а в душе владельца таятся 23 лика страха. Сменяя друг друга, личности ведут обычную для них жизнь - работают и ходят к психотерапевту, периодически напоминая пленницам, что они дожидаются 24-ю личность, которая скоро явит себя миру.
Description: Cредь бела дня с многолюдной парковки незнакомец похищает трёх школьниц. Они приходят в себя в закрытом помещении, а в душе владельца таятся 23 лика страха. Сменяя друг друга, личности ведут обычную для них жизнь - работают и ходят к психотерапевту, периодически напоминая пленницам, что они дожидаются 24-ю личность, которая скоро явит себя миру.
Release Date: 2016-09-26T08:00:00Z
Genre: Thriller
Artist: M. Night Shyamalan
Name: Split (2017)

MediaInfo

General
Complete name                            : /Users/imac/HandBrake/Split (2017) (1080p HD).m4v
Format                                   : MPEG-4
Codec ID                                 : M4V  (M4V /M4A /mp42/isom)
File size                                : 7.65 GiB
Duration                                 : 1h 57mn
Overall bit rate mode                    : Variable
Overall bit rate                         : 9 346 Kbps
Movie name                               : Split (2017)
Performer                                : M. Night Shyamalan
Director                                 : М. Найт Шьямалан
Actor                                    : Джеймс МакЭвой / Аня Тейлор-Джой / Бетти Бакли / Хейли Лу Ричардсон / Джессика Сула / Иззи Коффи / Брэд Уильям Хенке / Себастьян Арселус / Нил Хафф / Уки Вашингтон / Сергей Смирнов / Элиза Мартиросова / Марина Тарасова / Лина Иванова / Александра Курагина
Screenplay by                            : М. Найт Шьямалан
Producer                                 : Марк Бьенсток / Джейсон Блум / Дом Катанцарите
Production studio                        : Universal Pictures
Genre                                    : Thriller
ContentType                              : Short Film
Description                              : Cредь бела дня с многолюдной парковки незнакомец похищает трёх школьниц. Они приходят в себя в закрытом помещении, а в душе владельца таятся 23 лика страха. Сменяя друг друга, личности ведут обычную для них жизнь - работают и ходят к психотерапевту, периодически напоминая пленницам, что они дожидаются 24-ю личность, которая скоро явит себя миру.
Recorded date                            : UTC 2016-09-26 08:00:00
Encoded date                             : UTC 2017-08-07 10:18:27
Tagged date                              : UTC 2017-08-07 10:26:02
Copyright                                : © 2017 Universal Studios. All Rights Reserved.
Cover                                    : Yes
Rating                                   : None
Title/Sort                               : Split
LongDescription                          : Cредь бела дня с многолюдной парковки незнакомец похищает трёх школьниц. Они приходят в себя в закрытом помещении, а в душе владельца таятся 23 лика страха. Сменяя друг друга, личности ведут обычную для них жизнь - работают и ходят к психотерапевту, периодически напоминая пленницам, что они дожидаются 24-ю личность, которая скоро явит себя миру.
AppleStoreCatalogID                      : 1189252846
Vendor                                   : Apple:vendor_id:2016-930534
ContentRating                            : mpaa|PG-13|300|
Video #1
ID                                       : 1
Format                                   : AVC
Format/Info                              : Advanced Video Codec
Format profile                           : [email protected]
Format settings, CABAC                   : Yes
Format settings, ReFrames                : 4 frames
Codec ID                                 : avc1
Codec ID/Info                            : Advanced Video Coding
Duration                                 : 1h 57mn
Source duration                          : 1h 57mn
Bit rate                                 : 8 000 Kbps
Width                                    : 1 920 pixels
Height                                   : 800 pixels
Display aspect ratio                     : 2.40:1
Frame rate mode                          : Variable
Frame rate                               : 23.976 (24000/1001) fps
Minimum frame rate                       : 23.974 fps
Maximum frame rate                       : 23.981 fps
Color space                              : YUV
Chroma subsampling                       : 4:2:0
Bit depth                                : 8 bits
Scan type                                : Progressive
Bits/(Pixel*Frame)                       : 0.217
Stream size                              : 6.54 GiB (86%)
Source stream size                       : 6.54 GiB (86%)
Title                                    : Main Program
Writing library                          : x264 core 148 r2708 86b7198
Encoding settings                        : cabac=1 / ref=4 / deblock=1:-2:-2 / analyse=0x3:0x133 / me=umh / subme=10 / psy=1 / psy_rd=1.00:0.15 / mixed_ref=1 / me_range=32 / chroma_me=1 / trellis=2 / 8x8dct=1 / cqm=0 / deadzone=21,11 / fast_pskip=1 / chroma_qp_offset=-3 / threads=25 / lookahead_threads=6 / sliced_threads=0 / nr=0 / decimate=0 / interlaced=0 / bluray_compat=0 / constrained_intra=0 / bframes=16 / b_pyramid=2 / b_adapt=2 / b_bias=0 / direct=3 / weightb=1 / open_gop=0 / weightp=2 / keyint=240 / keyint_min=24 / scenecut=40 / intra_refresh=0 / rc_lookahead=40 / rc=2pass / mbtree=1 / bitrate=8000 / ratetol=1.0 / qcomp=0.70 / qpmin=0 / qpmax=69 / qpstep=4 / cplxblur=20.0 / qblur=0.5 / ip_ratio=1.40 / aq=1:1.00
Language                                 : English
Encoded date                             : UTC 2017-08-07 10:18:27
Tagged date                              : UTC 2017-08-07 10:18:40
Color range                              : Limited
Color primaries                          : BT.709
Transfer characteristics                 : BT.709
Matrix coefficients                      : BT.709
Menus                                    : 8,9
Video #2
ID                                       : 9
Format                                   : JPEG
Codec ID                                 : jpeg
Duration                                 : 1h 57mn
Bit rate mode                            : Variable
Bit rate                                 : 827 bps
Width                                    : 640 pixels
Height                                   : 266 pixels
Display aspect ratio                     : 2.40:1
Frame rate mode                          : Variable
Frame rate                               : 0.003 fps
Minimum frame rate                       : 0.002 fps
Maximum frame rate                       : 0.005 fps
Color space                              : YUV
Chroma subsampling                       : 4:2:0
Bit depth                                : 8 bits
Compression mode                         : Lossy
Bits/(Pixel*Frame)                       : 1.619
Stream size                              : 673 KiB (0%)
Title                                    : Chapter Images
Language                                 : English
Default                                  : No
Encoded date                             : UTC 2017-08-07 10:18:49
Tagged date                              : UTC 2017-08-07 10:18:49
Menu For                                 : 1
Audio #1
ID                                       : 2
Format                                   : AAC
Format/Info                              : Advanced Audio Codec
Format profile                           : LC
Codec ID                                 : 40
Duration                                 : 1h 57mn
Bit rate mode                            : Variable
Bit rate                                 : 156 Kbps
Maximum bit rate                         : 228 Kbps
Channel(s)                               : 2 channels
Channel positions                        : Front: L R
Sampling rate                            : 48.0 KHz
Frame rate                               : 46.875 fps (1024 SPF)
Compression mode                         : Lossy
Stream size                              : 131 MiB (2%)
Title                                    : Russian Stereo
Language                                 : Russian
Default                                  : Yes
Alternate group                          : 1
Encoded date                             : UTC 2017-08-07 10:18:27
Tagged date                              : UTC 2017-08-07 10:18:40
Fallback From                            : 4
Menus                                    : 8
Audio #2
ID                                       : 3
Format                                   : AAC
Format/Info                              : Advanced Audio Codec
Format profile                           : LC
Codec ID                                 : 40
Duration                                 : 1h 57mn
Bit rate mode                            : Variable
Bit rate                                 : 157 Kbps
Maximum bit rate                         : 241 Kbps
Channel(s)                               : 2 channels
Channel positions                        : Front: L R
Sampling rate                            : 48.0 KHz
Frame rate                               : 46.875 fps (1024 SPF)
Compression mode                         : Lossy
Stream size                              : 131 MiB (2%)
Title                                    : English Stereo
Language                                 : English
Default                                  : No
Alternate group                          : 1
Encoded date                             : UTC 2017-08-07 10:18:27
Tagged date                              : UTC 2017-08-07 10:18:40
Fallback From                            : 5
Audio #3
ID                                       : 4
Format                                   : AC-3
Format/Info                              : Audio Coding 3
Format settings, Endianness              : Big
Codec ID                                 : ac-3
Duration                                 : 1h 57mn
Bit rate mode                            : Constant
Bit rate                                 : 384 Kbps
Channel(s)                               : 6 channels
Channel positions                        : Front: L C R, Side: L R, LFE
Sampling rate                            : 48.0 KHz
Frame rate                               : 31.250 fps (1536 SPF)
Bit depth                                : 16 bits
Compression mode                         : Lossy
Stream size                              : 322 MiB (4%)
Title                                    : Russian DD 5.1
Language                                 : Russian
Service kind                             : Complete Main
Default                                  : Inherited From: 2
Alternate group                          : 1
Encoded date                             : UTC 2017-08-07 10:18:27
Tagged date                              : UTC 2017-08-07 10:18:40
Fallback To                              : 2
Audio #4
ID                                       : 5
Format                                   : AC-3
Format/Info                              : Audio Coding 3
Format settings, Endianness              : Big
Codec ID                                 : ac-3
Duration                                 : 1h 57mn
Bit rate mode                            : Constant
Bit rate                                 : 640 Kbps
Channel(s)                               : 6 channels
Channel positions                        : Front: L C R, Side: L R, LFE
Sampling rate                            : 48.0 KHz
Frame rate                               : 31.250 fps (1536 SPF)
Bit depth                                : 16 bits
Compression mode                         : Lossy
Stream size                              : 536 MiB (7%)
Title                                    : English DD 5.1
Language                                 : English
Service kind                             : Complete Main
Default                                  : No
Alternate group                          : 1
Encoded date                             : UTC 2017-08-07 10:18:27
Tagged date                              : UTC 2017-08-07 10:18:40
Fallback To                              : 3
Text #1
ID                                       : 6
Format                                   : Timed Text
Muxing mode                              : sbtl
Codec ID                                 : tx3g
Duration                                 : 1h 52mn
Bit rate mode                            : Variable
Bit rate                                 : 83 bps
Stream size                              : 68.3 KiB (0%)
Title                                    : Russian Full
Language                                 : Russian
Default                                  : Yes
Forced                                   : No
Alternate group                          : 2
Encoded date                             : UTC 2017-08-07 10:18:27
Tagged date                              : UTC 2017-08-07 10:18:27
Text #2
ID                                       : 7
Format                                   : Timed Text
Muxing mode                              : sbtl
Codec ID                                 : tx3g
Duration                                 : 1h 52mn
Bit rate mode                            : Variable
Bit rate                                 : 52 bps
Stream size                              : 42.5 KiB (0%)
Title                                    : English full
Language                                 : English
Default                                  : No
Forced                                   : No
Alternate group                          : 2
Encoded date                             : UTC 2017-08-07 10:18:27
Tagged date                              : UTC 2017-08-07 10:18:27
Menu #1
00:00:00.000                             : Chapter 1
00:06:08.451                             : Chapter 2
00:14:19.025                             : Chapter 3
00:20:49.373                             : Chapter 4
00:24:14.536                             : Chapter 5
00:28:37.049                             : Chapter 6
00:35:47.979                             : Chapter 7
00:42:35.386                             : Chapter 8
00:49:06.068                             : Chapter 9
00:54:09.413                             : Chapter 10
01:00:24.496                             : Chapter 11
01:06:22.562                             : Chapter 12
01:12:30.596                             : Chapter 13
01:19:35.771                             : Chapter 14
01:25:25.829                             : Chapter 15
01:29:16.560                             : Chapter 16
01:34:08.226                             : Chapter 17
01:40:45.289                             : Chapter 18
01:47:40.287                             : Chapter 19
01:52:26.740                             : Chapter 20
Menu #2
ID                                       : 8
Codec ID                                 : text
Duration                                 : 1h 57mn
Language                                 : English
Encoded date                             : UTC 2017-08-07 10:18:40
Tagged date                              : UTC 2017-08-07 10:18:40
Menu For                                 : 2,1
00:00:00.000                             : Chapter 1
00:06:08.451                             : Chapter 2
00:14:19.025                             : Chapter 3
00:20:49.373                             : Chapter 4
00:24:14.536                             : Chapter 5
00:28:37.049                             : Chapter 6
00:35:47.979                             : Chapter 7
00:42:35.386                             : Chapter 8
00:49:06.068                             : Chapter 9
00:54:09.413                             : Chapter 10
01:00:24.496                             : Chapter 11
01:06:22.562                             : Chapter 12
01:12:30.596                             : Chapter 13
01:19:35.771                             : Chapter 14
01:25:25.829                             : Chapter 15
01:29:16.560                             : Chapter 16
01:34:08.226                             : Chapter 17
01:40:45.289                             : Chapter 18
01:47:40.287                             : Chapter 19
01:52:26.740                             : Chapter 20
Bit rate mode                            : VBR

x264 лог

x264 [info]: frame I:1047  Avg QP:13.85  size:250684
x264 [info]: frame P:31744 Avg QP:16.64  size: 82359
x264 [info]: frame B:135708 Avg QP:17.42  size: 30582
x264 [info]: consecutive B-frames:  1.2%  1.9%  4.0%  8.3% 17.3% 50.7%  8.0%  2.3%  2.0%  0.9%  0.8%  0.4%  0.5%  0.5%  0.2%  0.2%  0.8%
x264 [info]: mb I  I16..4: 15.8% 68.8% 15.4%
x264 [info]: mb P  I16..4:  2.3% 10.5%  0.7%  P16..4: 41.1% 24.0% 15.9%  0.7%  0.3%    skip: 4.4%
x264 [info]: mb B  I16..4:  0.2%  1.1%  0.0%  B16..8: 39.4% 10.7%  2.9%  direct: 8.4%  skip:37.2%  L0:44.4% L1:43.1% BI:12.5%
x264 [info]: 8x8 transform intra:77.4% inter:51.4%
x264 [info]: direct mvs  spatial:99.0% temporal:1.0%
x264 [info]: coded y,uvDC,uvAC intra: 84.2% 91.4% 85.8% inter: 31.5% 37.6% 25.6%
x264 [info]: i16 v,h,dc,p: 58%  9% 13% 20%
x264 [info]: i8 v,h,dc,ddl,ddr,vr,hd,vl,hu:  9%  7% 13% 10% 13% 12% 12% 11% 13%
x264 [info]: i4 v,h,dc,ddl,ddr,vr,hd,vl,hu: 10%  9%  6% 10% 15% 14% 13% 11% 13%
x264 [info]: i8c dc,h,v,p: 60% 13% 13% 14%
x264 [info]: Weighted P-Frames: Y:1.5% UV:0.7%
x264 [info]: ref P L0: 48.5%  8.3% 31.0% 12.0%  0.2%  0.0%
x264 [info]: ref B L0: 80.3% 16.3%  3.4%
x264 [info]: ref B L1: 91.8%  8.2%
x264 [info]: kb/s:7999.10

Скриншоты

-
Релиз подготовлен для просмотра на Apple TV, iPad, iPhone, iPod Touch.
Для просмотра данного релиза на компьютере с ОС Windows рекомендуется использовать VLC media player

If you like the topic, please click share to help develop our site.

To download the file disable ad blocking, and reload the page.

disable adblock How to disable ad blocking?

Download by magnet link 7.65 GB Download Torrent

Login using:

Similar topics



   
Current time is: 17-Jun 02:05 :: All times are UTC + 3