Various Artists / Там, в области сердца Жанр: Pop
Носитель: CD
Страна-производитель диска (релиза): Чехия
Год издания: 1997
Издатель (лейбл): JSP Company/Джем
Номер по каталогу: 010 131-2
Страна исполнителя (группы): Россия
Аудиокодек: FLAC (*.flac)
Тип рипа: image+.cue
Битрейт аудио: lossless
Продолжительность: 00:59:17
Источник (релизер): собственный CD [Антициклон]
Наличие сканов в содержимом раздачи: да
-Треклист:
01. Максим Фадеев - Беги по небу
02. Вадим Усланов - Ты сделана из огня
03. Анжелика Варум - Одна
04. Вадим Казаченко - Опять забываю
05. Максим Леонидов - Проплывая над городом
06. Хамелеон - Полная луна
07. Полиция нравов - Колыбельная
08. Дмитрий Маликов - Иди ко мне
09. Линда - Я не буду стрелять
10. Роман Рябцев - Рано или поздно
11. Светлана Владимирская - По капле дождя
12. Сергей Минаев - Ты
13. Шанхай - Твои печали
14. Руки вверх! - Последний поцелуй

Лог создания рипа

Exact Audio Copy V1.3 from 2. September 2016
Отчёт EAC об извлечении, выполненном 13. сентября 2017, 21:24
Various Artists / Там, в области сердца
Дисковод: ATAPI iHAS124 F Adapter: 1 ID: 0
Режим чтения : Достоверность
Использование точного потока : Да
Отключение кэша аудио : Да
Использование указателей C2 : Нет
Коррекция смещения при чтении : 6
Способность читать области Lead-in и Lead-out : Нет
Заполнение пропущенных сэмплов тишиной : Да
Удаление блоков с тишиной в начале и конце : Нет
При вычислениях CRC использовались нулевые сэмплы : Да
Интерфейс : Встроенный Win32-интерфейс для Win NT/2000
Выходной формат : Внутренние WAV-операции
Формат сэмплов : 44.100 Гц; 16 бит; стерео
TOC извлечённого CD
Трек | Старт | Длительность | Начальный сектор | Конечный сектор
---------------------------------------------------------------------
1 | 0:00.00 | 4:51.62 | 0 | 21886
2 | 4:51.62 | 5:02.28 | 21887 | 44564
3 | 9:54.15 | 4:25.20 | 44565 | 64459
4 | 14:19.35 | 3:02.02 | 64460 | 78111
5 | 17:21.37 | 3:03.45 | 78112 | 91881
6 | 20:25.07 | 4:19.70 | 91882 | 111376
7 | 24:45.02 | 4:55.23 | 111377 | 133524
8 | 29:40.25 | 5:11.17 | 133525 | 156866
9 | 34:51.42 | 3:36.18 | 156867 | 173084
10 | 38:27.60 | 5:34.00 | 173085 | 198134
11 | 44:01.60 | 3:41.07 | 198135 | 214716
12 | 47:42.67 | 4:15.68 | 214717 | 233909
13 | 51:58.60 | 3:26.12 | 233910 | 249371
14 | 55:24.72 | 3:52.08 | 249372 | 266779
Характеристики диапазона извлечения и сообщения об ошибках
Выбранный диапазон
Имя файла G:\Антициклон\VA - Там, в области сердца (1997)\Various Artists - Там, в области сердца.wav
Пиковый уровень 99.5 %
Скорость извлечения 9.4 X
Качество диапазона 99.9 %
CRC теста B53FA2F4
CRC копии B53FA2F4
Копирование... OK
Ошибок не произошло
AccurateRip: сводка
Трек 1 отсутствует в базе данных
Трек 2 отсутствует в базе данных
Трек 3 отсутствует в базе данных
Трек 4 отсутствует в базе данных
Трек 5 отсутствует в базе данных
Трек 6 отсутствует в базе данных
Трек 7 отсутствует в базе данных
Трек 8 отсутствует в базе данных
Трек 9 отсутствует в базе данных
Трек 10 отсутствует в базе данных
Трек 11 отсутствует в базе данных
Трек 12 отсутствует в базе данных
Трек 13 отсутствует в базе данных
Трек 14 отсутствует в базе данных
Ни одного трека нет в базе AccurateRip
Конец отчёта
---- CUETools DB Plugin V2.1.6
[CTDB TOCID: AyspQfnWE0ABtHSbfNw0IIh1Vlo-] disk not present in database
Submit result: AyspQfnWE0ABtHSbfNw0IIh1Vlo- has been uploaded
==== Контрольная сумма отчёта 830629EAF97EA91AE70AF1516622E58E226235E06B2C3E6DDD53F21B200D31B4 ====

Лог проверки качества

-----------------------
DON'T MODIFY THIS FILE
-----------------------
PERFORMER: auCDtect Task Manager, ver. 1.6.0 RC1 build 1.6.0.1
Copyright (c) 2008-2010 y-soft. All rights reserved
http://y-soft.org
ANALYZER: auCDtect: CD records authenticity detector, version 0.8.2
Copyright (c) 2004 Oleg Berngardt. All rights reserved.
Copyright (c) 2004 Alexander Djourik. All rights reserved.
FILE: Various Artists - Там, в области сердца.flac
Size: 378136108 Hash: E86A89872718CC39A4C7E9231B39E182 Accuracy: -m0
Conclusion: CDDA 100%
Signature: 79275FF077853971212EBE4EC0CEA958DFC10474

Скриншот спектра частот

To download the file disable ad blocking, and reload the page.

disable adblock How to disable ad blocking?

Download by magnet link 403 MB Download Torrent

Login using:

Similar topics



   
Current time is: 19-Jan 20:24 :: All times are UTC + 3