Various Artists / Большая стирка 5 Жанр: Pop
Носитель: CD
Страна-производитель диска (релиза): Россия
Год издания: 2003
Издатель (лейбл): Iceberg Music
Номер по каталогу: RR-259-CD
Аудиокодек: FLAC (*.flac)
Тип рипа: image+.cue
Битрейт аудио: lossless
Продолжительность: 01:19:32
Источник (релизер): собственный CD [Антициклон]
Наличие сканов в содержимом раздачи: да
-Треклист:
01. Чай вдвоем - Он не разлюбит
02. Валерий Меладзе и ВИА Гра - Океан и три реки
03. Блестящие - Апельсиновая песня
04. Катя Лель - Долетай
05. Алексей Романов - А за окном серый дождь
06. Витас - Мама
07. Иванушки International - Дальние моря
08. Алла Пугачёва - И исчезнет грусть
09. Александр Маршал - Отпусти любовь
10. Маша Распутина и Филипп Киркоров - Мечта
11. Анастасия Стоцкая - Вены-реки
12. Олег Газманов - Прощай
13. Пропаганда - Песня без слов
14. Другие правила - Она тебе нужна
15. Татьяна Буланова - Ангел
16. Премьер-Министр - Две минуты
17. Наталья Власова - Знай
18. Верка Сердючка - Все будет хорошо
19. Владимир Кузьмин - Струны моей души
20. Николай Расторгуев - Т-34
21. Алёна Апина и Татьяна Иванова - Пойдем со мной
22. Краски - Оранжевое солнце

Лог создания рипа

Exact Audio Copy V1.3 from 2. September 2016
Отчёт EAC об извлечении, выполненном 13. сентября 2017, 7:42
Various Artists / Большая стирка 5
Дисковод: ATAPI iHAS124 F Adapter: 1 ID: 0
Режим чтения : Достоверность
Использование точного потока : Да
Отключение кэша аудио : Да
Использование указателей C2 : Нет
Коррекция смещения при чтении : 6
Способность читать области Lead-in и Lead-out : Нет
Заполнение пропущенных сэмплов тишиной : Да
Удаление блоков с тишиной в начале и конце : Нет
При вычислениях CRC использовались нулевые сэмплы : Да
Интерфейс : Встроенный Win32-интерфейс для Win NT/2000
Выходной формат : Пользовательский кодировщик
Выбранный битрейт : 896 kBit/s
Качество : Высокий
Добавление ID3-тега : Да
Утилита сжатия : C:\Program Files (x86)\Exact Audio Copy\Flac\flac.exe
Дополнительные параметры : -V -5 %source%
TOC извлечённого CD
Трек | Старт | Длительность | Начальный сектор | Конечный сектор
---------------------------------------------------------------------
1 | 0:00.00 | 3:50.23 | 0 | 17272
2 | 3:50.23 | 3:39.68 | 17273 | 33765
3 | 7:30.16 | 3:23.47 | 33766 | 49037
4 | 10:53.63 | 3:37.41 | 49038 | 65353
5 | 14:31.29 | 3:20.21 | 65354 | 80374
6 | 17:51.50 | 3:11.42 | 80375 | 94741
7 | 21:03.17 | 3:48.24 | 94742 | 111865
8 | 24:51.41 | 3:45.26 | 111866 | 128766
9 | 28:36.67 | 3:47.14 | 128767 | 145805
10 | 32:24.06 | 3:58.56 | 145806 | 163711
11 | 36:22.62 | 3:51.66 | 163712 | 181102
12 | 40:14.53 | 3:51.48 | 181103 | 198475
13 | 44:06.26 | 3:52.26 | 198476 | 215901
14 | 47:58.52 | 3:39.62 | 215902 | 232388
15 | 51:38.39 | 4:22.23 | 232389 | 252061
16 | 56:00.62 | 2:49.13 | 252062 | 264749
17 | 58:50.00 | 3:00.10 | 264750 | 278259
18 | 61:50.10 | 3:30.59 | 278260 | 294068
19 | 65:20.69 | 4:41.18 | 294069 | 315161
20 | 70:02.12 | 3:01.09 | 315162 | 328745
21 | 73:03.21 | 2:53.49 | 328746 | 341769
22 | 75:56.70 | 3:35.18 | 341770 | 357912
Характеристики диапазона извлечения и сообщения об ошибках
Выбранный диапазон
Имя файла G:\Антициклон\VA - Большая стирка 5\Various Artists - Большая стирка 5.wav
Пиковый уровень 98.8 %
Скорость извлечения 10.0 X
Качество диапазона 99.9 %
CRC теста C2FCAFE2
CRC копии C2FCAFE2
Копирование... OK
Ошибок не произошло
AccurateRip: сводка
Трек 1 отсутствует в базе данных
Трек 2 отсутствует в базе данных
Трек 3 отсутствует в базе данных
Трек 4 отсутствует в базе данных
Трек 5 отсутствует в базе данных
Трек 6 отсутствует в базе данных
Трек 7 отсутствует в базе данных
Трек 8 отсутствует в базе данных
Трек 9 отсутствует в базе данных
Трек 10 отсутствует в базе данных
Трек 11 отсутствует в базе данных
Трек 12 отсутствует в базе данных
Трек 13 отсутствует в базе данных
Трек 14 отсутствует в базе данных
Трек 15 отсутствует в базе данных
Трек 16 отсутствует в базе данных
Трек 17 отсутствует в базе данных
Трек 18 отсутствует в базе данных
Трек 19 отсутствует в базе данных
Трек 20 отсутствует в базе данных
Трек 21 отсутствует в базе данных
Трек 22 отсутствует в базе данных
Ни одного трека нет в базе AccurateRip
Конец отчёта
---- CUETools DB Plugin V2.1.6
[CTDB TOCID: by.InZ.5U0nAYFkLK6nBMVDQlBw-] disk not present in database
Submit result: by.InZ.5U0nAYFkLK6nBMVDQlBw- has been uploaded
==== Контрольная сумма отчёта 1414E9217EE15B0C4BB73855840B151E7F887ECE321F4907BC2C805FB03492BD ====

Лог проверки качества

-----------------------
DON'T MODIFY THIS FILE
-----------------------
PERFORMER: auCDtect Task Manager, ver. 1.6.0 RC1 build 1.6.0.1
Copyright (c) 2008-2010 y-soft. All rights reserved
http://y-soft.org
ANALYZER: auCDtect: CD records authenticity detector, version 0.8.2
Copyright (c) 2004 Oleg Berngardt. All rights reserved.
Copyright (c) 2004 Alexander Djourik. All rights reserved.
FILE: Various Artists - Большая стирка 5.flac
Size: 595350947 Hash: E096DE610112B80199D29BFB4D5BCE39 Accuracy: -m0
Conclusion: CDDA 100%
Signature: B86002B9AF2F6E10E96D86B81D9DE086D4AFF238

Скриншот спектра частот


If you like the topic, please click share to help develop our site.

To download the file disable ad blocking, and reload the page.

disable adblock How to disable ad blocking?

Download by magnet link 672 MB Download Torrent

Login using:

Similar topics



   
Current time is: 24-Mar 22:08 :: All times are UTC + 3