-Dirk Quinn Band - QuinnTet - 2008- Жанр: Jazz, Funk, Improvisation, Fusion
Носитель: CD
Страна-производитель диска (релиза): USA
Год издания оригинала: 2008
Издатель (лейбл): Efficient Chimps Music
Номер по каталогу: ECM002
Страна исполнителя (группы) : USA
Аудио кодек: FLAC (*.flac)
Тип рипа: (tracks + .cue)
Битрейт аудио: lossless
Наличие сканов в содержимом раздачи: full scans, jpeg
Продолжительность: 55:01
Источник (релизер): REDacted
Трэклист:
1. Hello World. (00:53)
2. Evil Birdman of Funk (07:13)
3. Money Bus (05:55)
4. Thursday (07:10)
5. O.U.R. (07:31)
6. Davel's Return (04:44)
7. Emaj7th Jam (05:31)
8. Covert Mini-Putt (08:21)
9. Good Ol' Fashioned Gospel Throwdown (07:39)

Лог создания рипа

Exact Audio Copy V1.3 from 2. September 2016
EAC extraction logfile from 3. March 2017, 16:35
Dirk Quinn Band / QuinnTet
Used drive : HL-DT-STDVDRAM GTA0N Adapter: 1 ID: 0
Read mode : Secure
Utilize accurate stream : Yes
Defeat audio cache : Yes
Make use of C2 pointers : No
Read offset correction : 102
Overread into Lead-In and Lead-Out : No
Fill up missing offset samples with silence : Yes
Delete leading and trailing silent blocks : No
Null samples used in CRC calculations : Yes
Used interface : Native Win32 interface for Win NT & 2000
Gap handling : Appended to previous track
Used output format : User Defined Encoder
Selected bitrate : 1024 kBit/s
Quality : High
Add ID3 tag : No
Command line compressor : C:\Program Files (x86)\Exact Audio Copy\Flac\flac.exe
Additional command line options : -8 -V -T "ARTIST=%artist%" -T "TITLE=%title%" -T "ALBUM=%albumtitle%" -T "DATE=%year%" -T "TRACKNUMBER=%tracknr%" -T "GENRE=%genre%" -T "PERFORMER=%albuminterpret%" -T "COMPOSER=%composer%" %haslyrics%--tag-from-file=LYRICS="%lyricsfile%"%haslyrics% -T "ALBUMARTIST=%albumartist%" -T "DISCNUMBER=%cdnumber%" -T "TOTALDISCS=%totalcds%" -T "TOTALTRACKS=%numtracks%" -T "COMMENT=%comment%" %source% -o %dest%
TOC of the extracted CD
Track | Start | Length | Start sector | End sector
---------------------------------------------------------
1 | 0:00.00 | 0:53.45 | 0 | 4019
2 | 0:53.45 | 7:13.46 | 4020 | 36540
3 | 8:07.16 | 5:55.01 | 36541 | 63166
4 | 14:02.17 | 7:10.73 | 63167 | 95489
5 | 21:13.15 | 7:31.24 | 95490 | 129338
6 | 28:44.39 | 4:44.04 | 129339 | 150642
7 | 33:28.43 | 5:31.43 | 150643 | 175510
8 | 39:00.11 | 8:21.22 | 175511 | 213107
9 | 47:21.33 | 7:39.56 | 213108 | 247588
Track 1
Filename C:\Users\danca\Desktop\Converted FLAC Files\Dirk Quinn Band - (2008) QuinnTet {Efficient Chimps Music - ECM002 - CD} [FLAC]\01 Hello World.wav
Pre-gap length 0:00:02.00
Peak level 100.0 %
Extraction speed 1.8 X
Track quality 100.0 %
Test CRC 14E73983
Copy CRC 14E73983
Track not present in AccurateRip database
Copy OK
Track 2
Filename C:\Users\danca\Desktop\Converted FLAC Files\Dirk Quinn Band - (2008) QuinnTet {Efficient Chimps Music - ECM002 - CD} [FLAC]\02 Evil Birdman of Funk.wav
Peak level 100.0 %
Extraction speed 3.2 X
Track quality 100.0 %
Test CRC F310E55A
Copy CRC F310E55A
Track not present in AccurateRip database
Copy OK
Track 3
Filename C:\Users\danca\Desktop\Converted FLAC Files\Dirk Quinn Band - (2008) QuinnTet {Efficient Chimps Music - ECM002 - CD} [FLAC]\03 Money Bus.wav
Peak level 100.0 %
Extraction speed 3.6 X
Track quality 100.0 %
Test CRC 5AFED403
Copy CRC 5AFED403
Track not present in AccurateRip database
Copy OK
Track 4
Filename C:\Users\danca\Desktop\Converted FLAC Files\Dirk Quinn Band - (2008) QuinnTet {Efficient Chimps Music - ECM002 - CD} [FLAC]\04 Thursday.wav
Peak level 100.0 %
Extraction speed 4.1 X
Track quality 100.0 %
Test CRC B2FBDBA0
Copy CRC B2FBDBA0
Track not present in AccurateRip database
Copy OK
Track 5
Filename C:\Users\danca\Desktop\Converted FLAC Files\Dirk Quinn Band - (2008) QuinnTet {Efficient Chimps Music - ECM002 - CD} [FLAC]\05 O.U.R. (Talking to Me).wav
Peak level 100.0 %
Extraction speed 4.5 X
Track quality 100.0 %
Test CRC D14F5E34
Copy CRC D14F5E34
Track not present in AccurateRip database
Copy OK
Track 6
Filename C:\Users\danca\Desktop\Converted FLAC Files\Dirk Quinn Band - (2008) QuinnTet {Efficient Chimps Music - ECM002 - CD} [FLAC]\06 Davel's Return.wav
Peak level 100.0 %
Extraction speed 4.5 X
Track quality 100.0 %
Test CRC C9D46486
Copy CRC C9D46486
Track not present in AccurateRip database
Copy OK
Track 7
Filename C:\Users\danca\Desktop\Converted FLAC Files\Dirk Quinn Band - (2008) QuinnTet {Efficient Chimps Music - ECM002 - CD} [FLAC]\07 Emaj7th Jam.wav
Peak level 100.0 %
Extraction speed 4.6 X
Track quality 100.0 %
Test CRC 46B649CD
Copy CRC 46B649CD
Track not present in AccurateRip database
Copy OK
Track 8
Filename C:\Users\danca\Desktop\Converted FLAC Files\Dirk Quinn Band - (2008) QuinnTet {Efficient Chimps Music - ECM002 - CD} [FLAC]\08 Covert Mini-Putt.wav
Peak level 100.0 %
Extraction speed 4.4 X
Track quality 99.9 %
Test CRC 37D4E65D
Copy CRC 37D4E65D
Track not present in AccurateRip database
Copy OK
Track 9
Filename C:\Users\danca\Desktop\Converted FLAC Files\Dirk Quinn Band - (2008) QuinnTet {Efficient Chimps Music - ECM002 - CD} [FLAC]\09 Good Ol' Fashioned Gospel Throwdown.wav
Peak level 100.0 %
Extraction speed 5.1 X
Track quality 100.0 %
Test CRC 272479BF
Copy CRC 272479BF
Track not present in AccurateRip database
Copy OK
None of the tracks are present in the AccurateRip database
No errors occurred
End of status report
---- CUETools DB Plugin V2.1.6
[CTDB TOCID: Zu5tbPmu0NJIqv.1.KHC53SfbVA-] found
Submit result: Zu5tbPmu0NJIqv.1.KHC53SfbVA- has been confirmed
Track | CTDB Status
1 | (1/1) Accurately ripped
2 | (1/1) Accurately ripped
3 | (1/1) Accurately ripped
4 | (1/1) Accurately ripped
5 | (1/1) Accurately ripped
6 | (1/1) Accurately ripped
7 | (1/1) Accurately ripped
8 | (1/1) Accurately ripped
9 | (1/1) Accurately ripped
==== Log checksum E859C2C28C9018A60447094F62EEF85CF351EDD929A5D42993337299EFBA1FA1 ====

Содержание индексной карты (.CUE):

REM GENRE Jazz
REM DATE 2008
REM DISCID 6F0CE509
REM COMMENT "ExactAudioCopy v1.3"
PERFORMER "Dirk Quinn Band"
TITLE "QuinnTet"
REM COMPOSER ""
FILE "01 Hello World.wav" WAVE
TRACK 01 AUDIO
TITLE "Hello World"
PERFORMER "Dirk Quinn Band"
REM COMPOSER ""
FLAGS DCP
INDEX 01 00:00:00
FILE "02 Evil Birdman of Funk.wav" WAVE
TRACK 02 AUDIO
TITLE "Evil Birdman of Funk"
PERFORMER "Dirk Quinn Band"
REM COMPOSER ""
FLAGS DCP
INDEX 01 00:00:00
FILE "03 Money Bus.wav" WAVE
TRACK 03 AUDIO
TITLE "Money Bus"
PERFORMER "Dirk Quinn Band"
REM COMPOSER ""
FLAGS DCP
INDEX 01 00:00:00
FILE "04 Thursday.wav" WAVE
TRACK 04 AUDIO
TITLE "Thursday"
PERFORMER "Dirk Quinn Band"
REM COMPOSER ""
FLAGS DCP
INDEX 01 00:00:00
FILE "05 O.U.R. (Talking to Me).wav" WAVE
TRACK 05 AUDIO
TITLE "O.U.R. (Talking to Me?)"
PERFORMER "Dirk Quinn Band"
REM COMPOSER ""
FLAGS DCP
INDEX 01 00:00:00
FILE "06 Davel's Return.wav" WAVE
TRACK 06 AUDIO
TITLE "Davel's Return"
PERFORMER "Dirk Quinn Band"
REM COMPOSER ""
FLAGS DCP
INDEX 01 00:00:00
FILE "07 Emaj7th Jam.wav" WAVE
TRACK 07 AUDIO
TITLE "Emaj7th Jam"
PERFORMER "Dirk Quinn Band"
REM COMPOSER ""
FLAGS DCP
INDEX 01 00:00:00
FILE "08 Covert Mini-Putt.wav" WAVE
TRACK 08 AUDIO
TITLE "Covert Mini-Putt"
PERFORMER "Dirk Quinn Band"
REM COMPOSER ""
FLAGS DCP
INDEX 01 00:00:00
FILE "09 Good Ol' Fashioned Gospel Throwdown.wav" WAVE
TRACK 09 AUDIO
TITLE "Good Ol' Fashioned Gospel Throwdown"
PERFORMER "Dirk Quinn Band"
REM COMPOSER ""
FLAGS DCP
INDEX 01 00:00:00

Лог проверки качества

-----------------------
DON'T MODIFY THIS FILE
-----------------------
PERFORMER: auCDtect Task Manager, ver. 1.6.0 RC1 build 1.6.0.1
Copyright (c) 2008-2010 y-soft. All rights reserved
http://y-soft.org
ANALYZER: auCDtect: CD records authenticity detector, version 0.8.2
Copyright (c) 2004 Oleg Berngardt. All rights reserved.
Copyright (c) 2004 Alexander Djourik. All rights reserved.
FILE: 09 Good Ol' Fashioned Gospel Throwdown.flac
Size: 50322448 Hash: 8DF5DFD6AE04F71233F72024FC38B45C Accuracy: -m0
Conclusion: CDDA 100%
Signature: 3D17575934F79BD8EF6DD974A082F4A456E24A00
FILE: 08 Covert Mini-Putt.flac
Size: 57136887 Hash: F10DE700BA73AAC9D0ED60F531B7B54A Accuracy: -m0
Conclusion: CDDA 99%
Signature: 01DBEFC3E91255C7CC62401327E7AEA8B32C2E2C
FILE: 07 Emaj7th Jam.flac
Size: 33741564 Hash: 6710DB48307C0856796288D5D07AA1D2 Accuracy: -m0
Conclusion: CDDA 100%
Signature: 615BE51B66C4ECC44928DFFB87BA9556C67C6EDC
FILE: 06 Davel's Return.flac
Size: 25538430 Hash: 367D793769B7C4079DE439A18BCAC216 Accuracy: -m0
Conclusion: CDDA 100%
Signature: AE9EDF3236DC5149A90F5F4FD214341F4A8822D4
FILE: 05 O.U.R. (Talking to Me).flac
Size: 53193138 Hash: 2E146B11E1719CFFC0C98556AACC7C27 Accuracy: -m0
Conclusion: CDDA 99%
Signature: 95BAD4B44B2F8AABBC3305985889E4B7FCCE3AFF
FILE: 04 Thursday.flac
Size: 42973355 Hash: 9B9F48C7AAF07657559CDAE21C2278DE Accuracy: -m0
Conclusion: CDDA 100%
Signature: C80A6EE821882B331D1DBA5343694E1B8B6A2A34
FILE: 03 Money Bus.flac
Size: 40483578 Hash: D3AA4224B90BE54F491949A5F27E8E6C Accuracy: -m0
Conclusion: CDDA 100%
Signature: ABE11604E58965F05511F02D4C98C7083D240E89
FILE: 02 Evil Birdman of Funk.flac
Size: 48452907 Hash: 51B867F32158B051B17295FB58640AC7 Accuracy: -m0
Conclusion: CDDA 100%
Signature: 19505373B885069B57A215D9F3EC1F37D9A278CB
FILE: 01 Hello World.flac
Size: 5387476 Hash: 3DE0196350B27469EE5245152ABA238C Accuracy: -m0
Conclusion: CDDA 100%
Signature: 46F78DFBD8A2257B9BC47369497A14F0F6B4245A

Замер динамического диапазона

foobar2000 1.3.10 / Замер динамического диапазона (DR) 1.1.1
Дата отчёта: 2017-09-16 07:36:11
--------------------------------------------------------------------------------
Анализ: Dirk Quinn Band / QuinnTet
--------------------------------------------------------------------------------
DR Пики RMS Продолжительность трека
--------------------------------------------------------------------------------
DR10 0.00 дБ -11.76 дБ 0:54 01-Hello World
DR9 0.00 дБ -10.57 дБ 7:14 02-Evil Birdman of Funk
DR8 0.00 дБ -10.19 дБ 5:55 03-Money Bus
DR8 0.00 дБ -10.39 дБ 7:11 04-Thursday
DR7 0.00 дБ -9.07 дБ 7:31 05-O.U.R. (Talking to Me?)
DR10 0.00 дБ -12.94 дБ 4:44 06-Davel's Return
DR9 0.00 дБ -10.92 дБ 5:32 07-Emaj7th Jam
DR8 0.00 дБ -10.18 дБ 8:21 08-Covert Mini-Putt
DR7 0.00 дБ -9.78 дБ 7:40 09-Good Ol' Fashioned Gospel Throwdown
--------------------------------------------------------------------------------
Количество треков: 9
Реальные значения DR: DR9
Частота: 44100 Гц
Каналов: 2
Разрядность: 16
Битрейт: 875 кбит/с
Кодек: FLAC
================================================================================
-

Back

Диск

Состав

Dirk Quinn - Arranger, Guitar
Chris Aschman - Drums (Steel), Trumpet
Joe Baldacci - Drum, Percussion
Michael Borowski - Keyboards, Piano
Kevin Killen - Bass
Elliott Levin - Flute (7)
Luke O'Reilly - Organ (6,9)
Jon Barnes - Trumpet (9)
-

If you like the topic, please click share to help develop our site.

To download the file disable ad blocking, and reload the page.

disable adblock How to disable ad blocking?

Download by magnet link 349 MB Download Torrent

Login using:

Similar topics



   
Current time is: 17-Jun 02:34 :: All times are UTC + 3