-Dirk Quinn - Dirk Quinn - 2006 (Efficient Chimps Music)- Жанр: Jazz, Funk, Improvisation, Fusion
Носитель: WEB
Страна-производитель диска (релиза): USA
Год издания оригинала: 2006
Издатель (лейбл): © Copyright - Efficient Chimps Music / Dirk Quinn
Номер по каталогу: 837101215404
Страна исполнителя (группы) : USA
Аудио кодек: FLAC (*.flac)
Тип рипа: (tracks)
Битрейт аудио: lossless
Наличие сканов в содержимом раздачи: none
Продолжительность: 46:49
Источник (релизер): CDBaby
Трэклист:
1. Eve (05:22)
2. Koopa's Groove (01:52)
3. On the D.L. (00:10)
4. Lonely Guy Sparks (07:51)
5. Intro (00:35)
6. Over a Girl (05:01)
7. Poem (05:42)
8. P (00:17)
9. Melt (06:05)
10. In a Red Wind (02:32)
11. Koopa's Reprise (11:17)

Лог проверки качества

-----------------------
DON'T MODIFY THIS FILE
-----------------------
PERFORMER: auCDtect Task Manager, ver. 1.6.0 RC1 build 1.6.0.1
Copyright (c) 2008-2010 y-soft. All rights reserved
http://y-soft.org
ANALYZER: auCDtect: CD records authenticity detector, version 0.8.2
Copyright (c) 2004 Oleg Berngardt. All rights reserved.
Copyright (c) 2004 Alexander Djourik. All rights reserved.
FILE: 11 Koopa's Reprise.flac
Size: 53373594 Hash: 82FCC253B7D56CD068D94D3D06A812D5 Accuracy: -m0
Conclusion: CDDA 99%
Signature: 2E239B21ED19110CE8E6A5F297FFE9AA93ECFAE6
FILE: 10 In A Red Wind.flac
Size: 12456636 Hash: 1DFC4D9082535E99ED15481712F4F2F0 Accuracy: -m0
Conclusion: CDDA 100%
Signature: 28336A184E3E657D810A0F82C75FE9433E4010FC
FILE: 09 Melt.flac
Size: 44342957 Hash: C866D402F570B37C8410D133A7644A15 Accuracy: -m0
Conclusion: CDDA 100%
Signature: C7214470158AD5029FED56D0EC3A5C3FFC655F04
FILE: 08 P.flac
Size: 2345013 Hash: 4EDA54551D1BE9443D23D627FF2BCB3A Accuracy: -m0
Conclusion: CDDA 100%
Signature: 8D79146008593428683F14E3674111C65BA4E48E
FILE: 07 Poem.flac
Size: 36901899 Hash: A52BDCB9DFCFD3A6A649CA1407A4F254 Accuracy: -m0
Conclusion: CDDA 100%
Signature: 1B09192B23DE478F9552E0B97D195D913FFC6923
FILE: 06 Over A Girl.flac
Size: 34085838 Hash: D34ACFE16254C3133A8772C9E9C9084B Accuracy: -m0
Conclusion: CDDA 99%
Signature: 2A57807FB64E4F4152BC855C3D7029A107D8B455
FILE: 04 Lonely Guy Sparks.flac
Size: 55043302 Hash: 107219DA04358E625F8564EC0840C949 Accuracy: -m0
Conclusion: CDDA 100%
Signature: 456A54DB236992E86E5F5201D91F327A78D0BF5F
FILE: 04 Intro.flac
Size: 4200242 Hash: 2B1439D40B626484989CAC18AD62B4D8 Accuracy: -m0
Conclusion: CDDA 100%
Signature: 4C593E0184D7FD75A681ED287DDD99CD0C7671AA
FILE: 03 On The DL.flac
Size: 1475030 Hash: E8CA6FFB2FB3E1C0515A81CBD84D3FFE Accuracy: -m0
Conclusion: CDDA 100%
Signature: 650E8EDC13AEC62FE6628FA92D14F7796FFBED53
FILE: 02 Koopa's Groove.flac
Size: 13258252 Hash: 8AE46D0C173FE47D4E8E02C71846D5CB Accuracy: -m0
Conclusion: CDDA 100%
Signature: 49D5ABB747E0763E728E0CD7D6D87ACB8AB014A3
FILE: 01 Eve.flac
Size: 36651551 Hash: 9290A95B580856050A03A3C9681165A0 Accuracy: -m0
Conclusion: CDDA 100%
Signature: D60A4FA52E76F67F01814EFDF0637D2AEF952660

Замер динамического диапазона

foobar2000 1.3.10 / Замер динамического диапазона (DR) 1.1.1
Дата отчёта: 2017-09-16 06:58:12
--------------------------------------------------------------------------------
Анализ: Dirk Quinn / Dirk Quinn
--------------------------------------------------------------------------------
DR Пики RMS Продолжительность трека
--------------------------------------------------------------------------------
DR9 -0.03 дБ -12.28 дБ 5:23 01-Eve
DR10 -0.40 дБ -12.97 дБ 1:52 02-Koopa's Groove
DR15 -3.88 дБ -19.63 дБ 0:10 03-On the D.L.
DR9 -0.01 дБ -11.11 дБ 7:52 04-Lonely Guy Sparks
DR13 -1.04 дБ -17.73 дБ 0:36 05-Intro
DR9 -0.01 дБ -12.40 дБ 5:01 06-Over a Girl
DR13 -0.01 дБ -17.52 дБ 5:42 07-Poem
DR14 -2.30 дБ -21.24 дБ 0:18 08-P
DR10 -0.01 дБ -12.34 дБ 6:06 09-Melt
DR13 -0.01 дБ -15.55 дБ 2:32 10-In a Red Wind
DR13 -0.10 дБ -19.45 дБ 11:18 11-Koopa's Reprise
--------------------------------------------------------------------------------
Количество треков: 11
Реальные значения DR: DR12
Частота: 44100 Гц
Каналов: 2
Разрядность: 16
Битрейт: 622 кбит/с
Кодек: FLAC
================================================================================

If you like the topic, please click share to help develop our site.

To download the file disable ad blocking, and reload the page.

disable adblock How to disable ad blocking?

Download by magnet link 281 MB Download Torrent

Login using:

Similar topics



   
Current time is: 24-Mar 22:08 :: All times are UTC + 3