Eivind Aarset - Sonic Codex
Жанр: Jazz
Год выпуска диска: 2007
Производитель диска: Norway
Аудио кодек: FLAC
Тип рипа: image+.cue
Битрейт аудио: lossless
Продолжительность: 57:54
Eivind Aarset guitar, electronics, kalimba, logdrum, programming, glockenspiel, electric bass on 7
Wetle Holte drums, percussion, programming, synth on 3 & 5, piano on 5, celeste on 4
Audun Erlien electric bass on 3,4 & 5, baryton guitar, celeste on 1, synth on 3, wurlitzer, vocal samples on 5
Marius Reksjø acoustic bass on 1,2 & 8, electric bass on 6 & 9
Anders Engen drums on 2
Hans Ulrik bass clarinet on 1 & 2, clarinet on 1 & 5
Tor Egil Kreken banjo on 5
Jan Bang sampler on 7
Erik Honore field recording on 7
Sign of Seven
Quicksilver Dream
Dröbak Saray
Cameo
Still Changing
Black Noise / White Silence
Family Pictures III
Sleeps With Fishes
The Return of Black Noise & Murky Lambada

EAC Report

Exact Audio Copy V0.99 prebeta 4 from 23. January 2008
EAC extraction logfile from 25. July 2008, 23:09
Eivind Aarset / Sonic Codex
Used drive : TSSTcorpCD/DVDW SH-S182M Adapter: 2 ID: 0
Read mode : Secure
Utilize accurate stream : Yes
Defeat audio cache : Yes
Make use of C2 pointers : No
Read offset correction : 6
Overread into Lead-In and Lead-Out : No
Fill up missing offset samples with silence : Yes
Delete leading and trailing silent blocks : No
Null samples used in CRC calculations : No
Used interface : Installed external ASPI interface
Used output format : User Defined Encoder
Selected bitrate : 1024 kBit/s
Quality : High
Add ID3 tag : No
Command line compressor : C:\Program Files\Exact Audio Copy\FLAC\FLAC.EXE
Additional command line options : -6 -V -T "ARTIST=%a" -T "TITLE=%t" -T "ALBUM=%g" -T "DATE=%y" -T "TRACKNUMBER=%n" -T "GENRE=%m" -T "COMMENT=%e" %s -o %d
TOC of the extracted CD
Track | Start | Length | Start sector | End sector
---------------------------------------------------------
1 | 0:00.00 | 6:26.05 | 0 | 28954
2 | 6:26.05 | 6:23.45 | 28955 | 57724
3 | 12:49.50 | 6:47.04 | 57725 | 88253
4 | 19:36.54 | 5:17.57 | 88254 | 112085
5 | 24:54.36 | 8:11.43 | 112086 | 148953
6 | 33:06.04 | 3:06.66 | 148954 | 162969
7 | 36:12.70 | 3:38.11 | 162970 | 179330
8 | 39:51.06 | 6:28.34 | 179331 | 208464
9 | 46:19.40 | 11:34.09 | 208465 | 260523
Range status and errors
Selected range
Filename F:\z\Eivind Aarset - Sonic Codex.wav
Peak level 98.8 %
Range quality 100.0 %
Copy CRC 46210279
Copy OK
No errors occurred
AccurateRip summary
Track 1 not present in database
Track 2 not present in database
Track 3 not present in database
Track 4 not present in database
Track 5 not present in database
Track 6 not present in database
Track 7 not present in database
Track 8 not present in database
Track 9 not present in database
None of the tracks are present in the AccurateRip database
End of status report
Eivind Aarset - Électronique Noire (1998)
Eivind Aarset - Light Extracts (2001)
Eivind Aarset - Connected (2004)
Eivind Aarset - Sonix Codex (2007)

If you like the topic, please click share to help develop our site.

To download the file disable ad blocking, and reload the page.

disable adblock How to disable ad blocking?

Download by magnet link 336 MB Download Torrent

Login using:

Similar topics

(Jazz) Eivind Aarset - Light Extracts - 2001, FLAC (image+.cue), lossless
 281 MB   0 | 0   16-Sep-17 23:30   2
(Jazz) Eivind Aarset - Connected - 2004, FLAC (image+.cue), lossless
 285 MB   0 | 0   16-Sep-17 23:30   2


   
Current time is: 17-Jun 01:37 :: All times are UTC + 3