Eivind Aarset - Connected
Жанр: Jazz
Год выпуска диска: 2004
Производитель диска: Norway
Аудио кодек: FLAC
Тип рипа: image+.cue
Битрейт аудио: lossless
Продолжительность: 59:06
Eivind Aarset guitar, programming
Jan Bang sample, dictaphone
Wetle Holte drums, programming, different noises
Marius Reksjø electric & acoustic bass, synt noise
Hans Ulrik bass clarinet
Dhafer Youssef vocal, oud
Pål Nyhus turntables
Rune Arnesen percussion
Anders Engen drums, percussion
Family Pictures 1
Electro Magnetic In E
Connectic
Feverish
Silk Worm
Nagabo Tomora
Blue In E
Transmission
Family Pictures 2
Changing Waltz

EAC Report

Exact Audio Copy V0.99 prebeta 4 from 23. January 2008
EAC extraction logfile from 25. July 2008, 22:51
Eivind Aarset / Connected
Used drive : TSSTcorpCD/DVDW SH-S182M Adapter: 2 ID: 0
Read mode : Secure
Utilize accurate stream : Yes
Defeat audio cache : Yes
Make use of C2 pointers : No
Read offset correction : 6
Overread into Lead-In and Lead-Out : No
Fill up missing offset samples with silence : Yes
Delete leading and trailing silent blocks : No
Null samples used in CRC calculations : No
Used interface : Installed external ASPI interface
Used output format : User Defined Encoder
Selected bitrate : 1024 kBit/s
Quality : High
Add ID3 tag : No
Command line compressor : C:\Program Files\Exact Audio Copy\FLAC\FLAC.EXE
Additional command line options : -6 -V -T "ARTIST=%a" -T "TITLE=%t" -T "ALBUM=%g" -T "DATE=%y" -T "TRACKNUMBER=%n" -T "GENRE=%m" -T "COMMENT=%e" %s -o %d
TOC of the extracted CD
Track | Start | Length | Start sector | End sector
---------------------------------------------------------
1 | 0:00.00 | 5:11.48 | 0 | 23372
2 | 5:11.48 | 5:12.21 | 23373 | 46793
3 | 10:23.69 | 6:31.33 | 46794 | 76151
4 | 16:55.27 | 4:33.46 | 76152 | 96672
5 | 21:28.73 | 7:04.16 | 96673 | 128488
6 | 28:33.14 | 5:28.73 | 128489 | 153161
7 | 34:02.12 | 7:11.23 | 153162 | 185509
8 | 41:13.35 | 5:44.38 | 185510 | 211347
9 | 46:57.73 | 4:52.65 | 211348 | 233312
10 | 51:50.63 | 7:14.66 | 233313 | 265928
Range status and errors
Selected range
Filename F:\z\Eivind Aarset - Connected.wav
Peak level 98.8 %
Range quality 100.0 %
Copy CRC DB50DAC6
Copy OK
No errors occurred
AccurateRip summary
Track 1 accurately ripped (confidence 2) [4426F7F2]
Track 2 accurately ripped (confidence 2) [09D2DC2E]
Track 3 accurately ripped (confidence 2) [DB5CE3DB]
Track 4 accurately ripped (confidence 2) [2A3770C4]
Track 5 accurately ripped (confidence 2) [A119DE08]
Track 6 accurately ripped (confidence 2) [8BFDFA87]
Track 7 accurately ripped (confidence 2) [59ED1DBD]
Track 8 accurately ripped (confidence 2) [BB21CA3C]
Track 9 accurately ripped (confidence 2) [150839EF]
Track 10 accurately ripped (confidence 2) [66DF4512]
All tracks accurately ripped
End of status report
Eivind Aarset - Électronique Noire (1998)
Eivind Aarset - Light Extracts (2001)
Eivind Aarset - Connected (2004)
Eivind Aarset - Sonix Codex (2007)

If you like the topic, please click share to help develop our site.

To download the file disable ad blocking, and reload the page.

disable adblock How to disable ad blocking?

Download by magnet link 285 MB Download Torrent

Login using:

Similar topics

(Jazz) Eivind Aarset - Light Extracts - 2001, FLAC (image+.cue), lossless
 281 MB   0 | 0   16-Sep-17 23:30   2
(Jazz) Eivind Aarset - Sonic Codex - 2007, FLAC (image+.cue), lossless
 336 MB   0 | 0   16-Sep-17 23:30   0


   
Current time is: 23-Mar 01:38 :: All times are UTC + 3