Eivind Aarset - Light Extracts
Жанр: Jazz
Год выпуска диска: 2001
Производитель диска: Norway
Аудио кодек: FLAC
Тип рипа: image+.cue
Битрейт аудио: lossless
Продолжительность: 52:10
Eivind Aarset guitar, fretless guitar, bass (4)
Wetle Holte drums, drum machine
Marius Reksjø electric and acoustic basses
guests:
Hans Ulrik bass clarinet,
Arve Furset rhodes, prophet,
Nils Petter Molvær trumpet,
Empathic Guitar
Wolf Extract
Dust Kittens
The String Thing
Between Signal & Noise
Ffwd / Slow Motion
Self Defence
Tunnel Church

EAC Report

Exact Audio Copy V0.99 prebeta 4 from 23. January 2008
EAC extraction logfile from 25. July 2008, 23:41
Eivind Aarset / Light Extracts
Used drive : TSSTcorpCD/DVDW SH-S182M Adapter: 2 ID: 0
Read mode : Secure
Utilize accurate stream : Yes
Defeat audio cache : Yes
Make use of C2 pointers : No
Read offset correction : 6
Overread into Lead-In and Lead-Out : No
Fill up missing offset samples with silence : Yes
Delete leading and trailing silent blocks : No
Null samples used in CRC calculations : No
Used interface : Installed external ASPI interface
Used output format : User Defined Encoder
Selected bitrate : 1024 kBit/s
Quality : High
Add ID3 tag : No
Command line compressor : C:\Program Files\Exact Audio Copy\FLAC\FLAC.EXE
Additional command line options : -6 -V -T "ARTIST=%a" -T "TITLE=%t" -T "ALBUM=%g" -T "DATE=%y" -T "TRACKNUMBER=%n" -T "GENRE=%m" -T "COMMENT=%e" %s -o %d
TOC of the extracted CD
Track | Start | Length | Start sector | End sector
---------------------------------------------------------
1 | 0:00.00 | 4:25.62 | 0 | 19936
2 | 4:25.62 | 8:20.50 | 19937 | 57486
3 | 12:46.37 | 5:26.65 | 57487 | 82001
4 | 18:13.27 | 7:40.60 | 82002 | 116561
5 | 25:54.12 | 8:33.73 | 116562 | 155109
6 | 34:28.10 | 6:23.57 | 155110 | 183891
7 | 40:51.67 | 4:33.70 | 183892 | 204436
8 | 45:25.62 | 6:44.20 | 204437 | 234756
Range status and errors
Selected range
Filename F:\z\Eivind Aarset - Light Extracts.wav
Peak level 99.8 %
Range quality 100.0 %
Copy CRC ED9C6DAD
Copy OK
No errors occurred
AccurateRip summary
Track 1 cannot be verified as accurate (confidence 2) [875FF0C1], AccurateRip returned [8FD953D6]
Track 2 cannot be verified as accurate (confidence 2) [9E2AB61B], AccurateRip returned [67320891]
Track 3 cannot be verified as accurate (confidence 2) [97828FBA], AccurateRip returned [AC8DF830]
Track 4 cannot be verified as accurate (confidence 2) [BF85E8EA], AccurateRip returned [DABA096C]
Track 5 cannot be verified as accurate (confidence 2) [0F244EE0], AccurateRip returned [B05861F5]
Track 6 cannot be verified as accurate (confidence 2) [52D100B8], AccurateRip returned [AB604B58]
Track 7 cannot be verified as accurate (confidence 2) [E0D2ABAF], AccurateRip returned [A5D5282E]
Track 8 cannot be verified as accurate (confidence 2) [FB5EFA86], AccurateRip returned [AEE63247]
No tracks could be verified as accurate
You may have a different pressing from the one(s) in the database
End of status report
Eivind Aarset - Électronique Noire (1998)
Eivind Aarset - Light Extracts (2001)
Eivind Aarset - Connected (2004)
Eivind Aarset - Sonix Codex (2007)

If you like the topic, please click share to help develop our site.

To download the file disable ad blocking, and reload the page.

disable adblock How to disable ad blocking?

Download by magnet link 281 MB Download Torrent

Login using:

Similar topics

(Jazz) Eivind Aarset - Connected - 2004, FLAC (image+.cue), lossless
 285 MB   0 | 0   16-Sep-17 23:30   2
(Jazz) Eivind Aarset - Sonic Codex - 2007, FLAC (image+.cue), lossless
 336 MB   0 | 0   16-Sep-17 23:30   0


   
Current time is: 23-Mar 02:13 :: All times are UTC + 3