Eivind Aarset - Électronique Noire
Жанр: Jazz
Год выпуска диска: 1998
Производитель диска: Norway
Аудио кодек: FLAC
Тип рипа: image+.cue
Битрейт аудио: lossless
Продолжительность: 59:43
Eivind Aarset guitars
Anders Engen drums
Ingebrit Flaten bass
Nils Petter Molvær trumpet
Bugge Wesseltoft rhodes
Kim Ofstad drums
Jonny Sjo bass
Kjetil Bjerkestrand synth
Vidar Johansen bass clarinet, soprano sax
Kjetil Saunes synth
Bjørn Kjellemyr bass
Dark Moisture
Entrance / U-Bahn
Lost and Found
Superstrings
Électronique Noire
Wake-Up Call
Namib
Spooky Danish Waltz
Porcupine Night Walk

EAC Report

Exact Audio Copy V0.99 prebeta 4 from 23. January 2008
EAC extraction logfile from 25. July 2008, 22:38
Eivind Aarset / Électronique Noire
Used drive : TSSTcorpCD/DVDW SH-S182M Adapter: 2 ID: 0
Read mode : Secure
Utilize accurate stream : Yes
Defeat audio cache : Yes
Make use of C2 pointers : No
Read offset correction : 6
Overread into Lead-In and Lead-Out : No
Fill up missing offset samples with silence : Yes
Delete leading and trailing silent blocks : No
Null samples used in CRC calculations : No
Used interface : Installed external ASPI interface
Used output format : User Defined Encoder
Selected bitrate : 1024 kBit/s
Quality : High
Add ID3 tag : No
Command line compressor : C:\Program Files\Exact Audio Copy\FLAC\FLAC.EXE
Additional command line options : -6 -V -T "ARTIST=%a" -T "TITLE=%t" -T "ALBUM=%g" -T "DATE=%y" -T "TRACKNUMBER=%n" -T "GENRE=%m" -T "COMMENT=%e" %s -o %d
TOC of the extracted CD
Track | Start | Length | Start sector | End sector
---------------------------------------------------------
1 | 0:00.00 | 7:50.20 | 0 | 35269
2 | 7:50.20 | 8:33.50 | 35270 | 73794
3 | 16:23.70 | 7:33.10 | 73795 | 107779
4 | 23:57.05 | 8:26.52 | 107780 | 145781
5 | 32:23.57 | 3:53.35 | 145782 | 163291
6 | 36:17.17 | 6:38.63 | 163292 | 193204
7 | 42:56.05 | 3:00.25 | 193205 | 206729
8 | 45:56.30 | 7:06.40 | 206730 | 238719
9 | 53:02.70 | 6:40.27 | 238720 | 268746
Range status and errors
Selected range
Filename F:\z\Eivind Aarset - Électronique Noire.wav
Peak level 100.0 %
Range quality 99.9 %
Copy CRC A7B2E735
Copy OK
No errors occurred
AccurateRip summary
Track 1 accurately ripped (confidence 2) [1FA6889F]
Track 2 accurately ripped (confidence 2) [8590218E]
Track 3 accurately ripped (confidence 2) [9F1A75C9]
Track 4 accurately ripped (confidence 2) [A822C111]
Track 5 accurately ripped (confidence 2) [2B358237]
Track 6 accurately ripped (confidence 2) [E0DEE517]
Track 7 accurately ripped (confidence 2) [5CC544E4]
Track 8 accurately ripped (confidence 2) [FD80CD9B]
Track 9 accurately ripped (confidence 2) [E2D0F125]
All tracks accurately ripped
End of status report
Eivind Aarset - Électronique Noire (1998)
Eivind Aarset - Light Extracts (2001)
Eivind Aarset - Connected (2004)
Eivind Aarset - Sonix Codex (2007)

If you like the topic, please click share to help develop our site.

To download the file disable ad blocking, and reload the page.

disable adblock How to disable ad blocking?

Download by magnet link 305 MB Download Torrent

Login using:

Similar topics

(Jazz) Eivind Aarset - Light Extracts - 2001, FLAC (image+.cue), lossless
 281 MB   0 | 0   16-Sep-17 23:30   2
(Jazz) Eivind Aarset - Connected - 2004, FLAC (image+.cue), lossless
 285 MB   0 | 0   16-Sep-17 23:30   2
(Jazz) Eivind Aarset - Sonic Codex - 2007, FLAC (image+.cue), lossless
 336 MB   0 | 0   16-Sep-17 23:30   0


   
Current time is: 23-Mar 01:11 :: All times are UTC + 3