Julie Aubé / Joie de Vivre
Жанр: Pop, Chanson
Носитель: WEB
Год издания: 2017
Издатель (лейбл): Les disques de la cordonnerie
Аудиокодек: FLAC (*.flac)
Тип рипа: tracks
Битрейт аудио: lossless
Продолжительность: 00:36:37
Источник (релизер): qobuz
Наличие сканов в содержимом раздачи: Front
Треклист:
01. Joie de vivre
02. Dormir toute seule
03. Seras-tu là ?
04. Rêves en couleurs
05. Home's at?
06. Voir un homme
07. Crazy
08. Quand j'dors pas
09. Tu veux savoir
10. Radio bingo
11. La voix de ma mère

DR Log

foobar2000 1.1.10 / Dynamic Range Meter 1.1.1
log date: 2017-09-15 20:06:23
--------------------------------------------------------------------------------
Analyzed: Julie Aubé / Joie de vivre
--------------------------------------------------------------------------------
DR Peak RMS Duration Track
--------------------------------------------------------------------------------
DR5 -0.70 dB -7.03 dB 3:06 ?-Joie de vivre
DR5 -0.71 dB -8.14 dB 3:00 ?-Dormir toute seule
DR6 -0.71 dB -8.48 dB 2:35 ?-Seras-tu là ?
DR6 -0.71 dB -7.91 dB 2:41 ?-Rêves en couleurs
DR6 -0.71 dB -7.55 dB 3:33 ?-Home's at?
DR6 -0.70 dB -8.89 dB 3:22 ?-Voir un homme
DR5 -0.70 dB -7.58 dB 4:15 ?-Crazy
DR6 -0.70 dB -8.78 dB 3:40 ?-Quand j'dors pas
DR5 -0.71 dB -6.32 dB 2:34 ?-Tu veux savoir
DR5 -0.70 dB -7.62 dB 3:42 ?-Radio bingo
DR6 -0.71 dB -8.79 dB 4:09 ?-La voix de ma mère
--------------------------------------------------------------------------------
Number of tracks: 11
Official DR value: DR6
Samplerate: 44100 Hz
Channels: 2
Bits per sample: 16
Bitrate: 794 kbps
Codec: FLAC
================================================================================

Лог проверки качества

-----------------------
DON'T MODIFY THIS FILE
-----------------------
PERFORMER: auCDtect Task Manager, ver. 1.5.1RC4 build 1.5.1.5
Copyright (c) 2008-2010 y-soft. All rights reserved
http://y-soft.org
ANALYZER: auCDtect: CD records authenticity detector, version 0.8.2
Copyright (c) 2004 Oleg Berngardt. All rights reserved.
Copyright (c) 2004 Alexander Djourik. All rights reserved.
FILE: 11. La voix de ma mère.flac
Size: 24921586 Hash: 80047B647BD5927BB7214D49FD14BE1D Accuracy: -m0
Conclusion: CDDA 100%
Signature: 8F583C46DA413B8FBA5A94E8193BD806743A98C9
FILE: 10. Radio bingo.flac
Size: 23927673 Hash: FEA02F4E16843CD39827F2D829921A4A Accuracy: -m0
Conclusion: CDDA 100%
Signature: AD1DD326A116CB21EDEB32D21E83B25B8B5E6AAC
FILE: 09. Tu veux savoir.flac
Size: 16511992 Hash: 82BC9534D7681E94AE41FD10A1F29082 Accuracy: -m0
Conclusion: CDDA 99%
Signature: 755149CD10877B64E686A955976D6D8D7F78BBC1
FILE: 08. Quand j'dors pas.flac
Size: 22836077 Hash: 06D32F499FC1345F87F1BC4ED825269A Accuracy: -m0
Conclusion: CDDA 100%
Signature: 8D1D7DEB15CF875C25E6863F998D2E00776DCC13
FILE: 07. Crazy.flac
Size: 28201550 Hash: 59C7165B97B3A9B0C7558A660264423C Accuracy: -m0
Conclusion: CDDA 100%
Signature: 659B72CEB0A0A32E93D4A2887319F18ED681A030
FILE: 06. Voir un homme.flac
Size: 19997938 Hash: 005A43F593B5CDBCF8C367958449196D Accuracy: -m0
Conclusion: CDDA 100%
Signature: 22CA771397692EC1CDD08BDCA212AAD8DF89D7B2
FILE: 05. Home's at.flac
Size: 22452787 Hash: 7640EF126CC39B8E221C8C3B3FAEB05F Accuracy: -m0
Conclusion: CDDA 100%
Signature: A5084B8ABA273F0A76EA5501C15C6BE1CF100E3D
FILE: 04. Rêves en couleurs.flac
Size: 16771615 Hash: 4984F20D64375F20E792D628739D9611 Accuracy: -m0
Conclusion: CDDA 100%
Signature: 7AB388ADFA28B0B8958F9BAE40195F65D01C8ED6
FILE: 03. Seras-tu là .flac
Size: 17347117 Hash: E91F33164712DB32B9A569655E4D7595 Accuracy: -m0
Conclusion: CDDA 100%
Signature: 2A4C6C7CBEB79D9A6BFEA42BC6F3A3A359C3805B
FILE: 02. Dormir toute seule.flac
Size: 19023346 Hash: 5B4721FB4B154C2C670373D7E142BFEB Accuracy: -m0
Conclusion: CDDA 100%
Signature: 3F2B76C2C5EDEFA1EC2DB929E1973643BD5C5FC5
FILE: 01. Joie de vivre.flac
Size: 20226979 Hash: 0B200B6DFAC75F03351C1F68B8B52F86 Accuracy: -m0
Conclusion: CDDA 100%
Signature: 506CD5C244242327A911CB07313E82D654C7F1AA

Об исполнителе (группе)

https://www.julieaube.me

To download the file disable ad blocking, and reload the page.

disable adblock How to disable ad blocking?

Download by magnet link 222 MB Download Torrent

Login using:

Similar topics



   
Current time is: 20-Jan 14:15 :: All times are UTC + 3