Lisa Portelli / La Nébuleuse
Жанр: Pop, Chanson
Носитель: WEB
Год издания: 2017
Издатель (лейбл): At(h)ome
Аудиокодек: FLAC (*.flac)
Тип рипа: tracks
Битрейт аудио: lossless
Продолжительность: 00:42:56
Источник (релизер): 7digital
Наличие сканов в содержимом раздачи: Front
Треклист:
01. De noir et d'or
02. Appartenir au large
03. Naviguer
04. Longtemps
05. Tout cela
06. Vers d'autres voies
07. La nébuleuse
08. Dans la rocaille
09. Cherche la joie
10. Obsession
11. En sueur
12. Je suis la terre

DR Log

foobar2000 1.1.10 / Dynamic Range Meter 1.1.1
log date: 2017-09-15 20:18:39
--------------------------------------------------------------------------------
Analyzed: Lisa Portelli / La nébuleuse
--------------------------------------------------------------------------------
DR Peak RMS Duration Track
--------------------------------------------------------------------------------
DR8 -0.10 dB -10.95 dB 3:05 ?-De noir et d'or
DR8 -0.10 dB -9.22 dB 3:09 ?-Appartenir au large
DR7 -0.10 dB -8.98 dB 4:01 ?-Naviguer
DR7 -0.10 dB -8.79 dB 3:02 ?-Longtemps
DR10 -0.46 dB -13.78 dB 4:37 ?-Tout cela
DR7 -0.10 dB -8.08 dB 2:59 ?-Vers d'autres voies
DR7 -0.16 dB -9.27 dB 3:22 ?-La nébuleuse
DR10 -0.18 dB -11.96 dB 3:42 ?-Dans la rocaille
DR7 -0.12 dB -8.81 dB 3:20 ?-Cherche la joie
DR7 -0.15 dB -8.81 dB 3:26 ?-Obsession
DR8 -0.10 dB -10.81 dB 4:44 ?-En sueur
DR10 -0.17 dB -12.95 dB 3:29 ?-Je suis la terre
--------------------------------------------------------------------------------
Number of tracks: 12
Official DR value: DR8
Samplerate: 44100 Hz
Channels: 2
Bits per sample: 16
Bitrate: 759 kbps
Codec: FLAC
================================================================================

Лог проверки качества

-----------------------
DON'T MODIFY THIS FILE
-----------------------
PERFORMER: auCDtect Task Manager, ver. 1.5.1RC4 build 1.5.1.5
Copyright (c) 2008-2010 y-soft. All rights reserved
http://y-soft.org
ANALYZER: auCDtect: CD records authenticity detector, version 0.8.2
Copyright (c) 2004 Oleg Berngardt. All rights reserved.
Copyright (c) 2004 Alexander Djourik. All rights reserved.
FILE: 12. Je suis la terre.flac
Size: 19946611 Hash: 25B1FD4F957DF9A605CACF35D94444D7 Accuracy: -m0
Conclusion: CDDA 100%
Signature: 32F69067333B7B8854BB3EFFBC7F55CF3E1D9656
FILE: 11. En sueur.flac
Size: 27563096 Hash: E05743FD8E6D9A154141D71FB55E106B Accuracy: -m0
Conclusion: CDDA 100%
Signature: AB5F32A24617630B149276427987C43DF0FA3D8E
FILE: 10. Obsession.flac
Size: 21430122 Hash: 25C3BEDE04E9231DCF0272B3A1006850 Accuracy: -m0
Conclusion: CDDA 100%
Signature: 23121CEA50719AA79FC6A763E2FF3352BE01D8D5
FILE: 09. Cherche la joie.flac
Size: 22273232 Hash: 1A8C4B1069CE7345B2F252682A151D19 Accuracy: -m0
Conclusion: CDDA 100%
Signature: 111FEB855EBA8CA7917CB7C951ECA73096C4C62B
FILE: 08. Dans la rocaille.flac
Size: 22130932 Hash: 0E54496FE08E4B435CFD687E794ED72A Accuracy: -m0
Conclusion: CDDA 100%
Signature: 9CAEA593E760D6A8B68E32B5FDDFE8873BB1BE24
FILE: 07. La nébuleuse.flac
Size: 22467983 Hash: 00BCE7B6D5DCE0428299F519F99D1D30 Accuracy: -m0
Conclusion: CDDA 100%
Signature: 86098BA7A8B18D16AA20612334169C93EB84ADC0
FILE: 06. Vers d'autres voies.flac
Size: 19999498 Hash: A27FBBE0D51893BBFA7C36AAAD0774BC Accuracy: -m0
Conclusion: CDDA 100%
Signature: 5A289D433651C4D98D8CF94B08623D47401EF328
FILE: 05. Tout cela.flac
Size: 24817259 Hash: FD8C3B3D3FD7A71217138B7E728CAD68 Accuracy: -m0
Conclusion: CDDA 100%
Signature: C7AA1D405606D613A2FCFAC5B791C5BC010FE346
FILE: 04. Longtemps.flac
Size: 20769289 Hash: E8BBEC7D5390AE917431D57B7A5F5DF9 Accuracy: -m0
Conclusion: CDDA 100%
Signature: AFE98E566F51DADBEC4C032DE0EDA40FF6DD3662
FILE: 03. Naviguer.flac
Size: 25424182 Hash: FB80AD6F51C13FA95851D4D4EA803213 Accuracy: -m0
Conclusion: CDDA 100%
Signature: F4B9A803B1C05AE26029F0572BF2401B6D0D90C8
FILE: 02. Appartenir au large.flac
Size: 21998901 Hash: 68A00C311B3AAF9E0509876D6C301A65 Accuracy: -m0
Conclusion: CDDA 100%
Signature: 8385E79503AB64B425DA05DBDD7A74408BDF3B68
FILE: 01. De noir et d'or.flac
Size: 17647138 Hash: 8DB37A9FD52B65770CCDEB411FD38668 Accuracy: -m0
Conclusion: CDDA 100%
Signature: EBB796DE6F4E0EE9383B13DC27963F57C259AB3F

If you like the topic, please click share to help develop our site.

To download the file disable ad blocking, and reload the page.

disable adblock How to disable ad blocking?

Download by magnet link 254 MB Download Torrent

Login using:

Similar topics



   
Current time is: 17-Jun 02:46 :: All times are UTC + 3