Rudy Rotta - Volo Sul Mondo
Жанр: Blues Rock, Blues Soul, R&B
Страна-производитель диска: EEC
Год издания диска: 2017
Издатель (лейбл): ZYX Music
Номер по каталогу: PEC 2107-2
Страна: Italy
Аудиокодек: FLAC (*.flac)
Тип рипа: tracks+.cue
Битрейт аудио: lossless
Продолжительность: 00:39:24
Источник (релизер): Sket4er
Наличие сканов в содержимом раздачи: да
Треклист:
01. Salva Noi 03:41
02. Volo Sul Mondo 03:56
03. Lady 03:06
04. Giorno In Piu 04:44
05. So Di Blues 04:21
06. Vu Cumpra 04:37
07. Talk Shows 03:29
08. Vuoto Invisibile 05:00
10. Marmor, Stein Und Eisen Bricht 03:45

Лог создания рипа

Exact Audio Copy V1.1 from 23. June 2015
EAC extraction logfile from 14. September 2017, 20:28
Rudy Rotta / Volo Sul Mondo
Used drive : TSSTcorpCDDVDW SH-224DB Adapter: 1 ID: 0
Read mode : Secure
Utilize accurate stream : Yes
Defeat audio cache : Yes
Make use of C2 pointers : No
Read offset correction : 6
Overread into Lead-In and Lead-Out : No
Fill up missing offset samples with silence : Yes
Delete leading and trailing silent blocks : No
Null samples used in CRC calculations : Yes
Used interface : Native Win32 interface for Win NT & 2000
Gap handling : Appended to previous track
Used output format : User Defined Encoder
Selected bitrate : 1024 kBit/s
Quality : High
Add ID3 tag : No
Command line compressor : C:\Program Files (x86)\Exact Audio Copy\win64\flac.exe
Additional command line options : -8 -V -T "ARTIST=%artist%" -T "TITLE=%title%" -T "ALBUM=%albumtitle%" -T "DATE=%year%" -T "TRACKNUMBER=%tracknr%" -T "GENRE=%genre%" -T "COMMENT=%comment%" %source% -o %dest%
TOC of the extracted CD
Track | Start | Length | Start sector | End sector
---------------------------------------------------------
1 | 0:00.00 | 3:40.74 | 0 | 16573
2 | 3:40.74 | 3:56.17 | 16574 | 34290
3 | 7:37.16 | 3:05.58 | 34291 | 48223
4 | 10:42.74 | 4:43.72 | 48224 | 69520
5 | 15:26.71 | 4:21.07 | 69521 | 89102
6 | 19:48.03 | 4:37.10 | 89103 | 109887
7 | 24:25.13 | 3:28.61 | 109888 | 125548
8 | 27:53.74 | 2:45.10 | 125549 | 137933
9 | 30:39.09 | 4:59.58 | 137934 | 160416
10 | 35:38.67 | 3:45.04 | 160417 | 177295
Track 1
Filename F:\Sket4er\Rudy Rotta – Volo Sul Mondo 2017\01 Salva Noi.wav
Pre-gap length 0:00:02.00
Peak level 83.4 %
Extraction speed 1.9 X
Track quality 100.0 %
Test CRC D2BF77C3
Copy CRC D2BF77C3
Track not present in AccurateRip database
Copy OK
Track 2
Filename F:\Sket4er\Rudy Rotta – Volo Sul Mondo 2017\02 Volo Sul Mondo.wav
Peak level 93.3 %
Extraction speed 2.1 X
Track quality 100.0 %
Test CRC 94CDC5BB
Copy CRC 94CDC5BB
Track not present in AccurateRip database
Copy OK
Track 3
Filename F:\Sket4er\Rudy Rotta – Volo Sul Mondo 2017\03 Lady.wav
Peak level 85.7 %
Extraction speed 2.1 X
Track quality 100.0 %
Test CRC CFAE8478
Copy CRC CFAE8478
Track not present in AccurateRip database
Copy OK
Track 4
Filename F:\Sket4er\Rudy Rotta – Volo Sul Mondo 2017\04 Giorno In Piu.wav
Peak level 90.5 %
Extraction speed 2.4 X
Track quality 100.0 %
Test CRC 90FF6E93
Copy CRC 90FF6E93
Track not present in AccurateRip database
Copy OK
Track 5
Filename F:\Sket4er\Rudy Rotta – Volo Sul Mondo 2017\05 So Di Blues.wav
Peak level 90.2 %
Extraction speed 2.6 X
Track quality 100.0 %
Test CRC 3A416B69
Copy CRC 3A416B69
Track not present in AccurateRip database
Copy OK
Track 6
Filename F:\Sket4er\Rudy Rotta – Volo Sul Mondo 2017\06 Vu Cumpra.wav
Peak level 95.5 %
Extraction speed 2.7 X
Track quality 100.0 %
Test CRC 725AEA66
Copy CRC 725AEA66
Track not present in AccurateRip database
Copy OK
Track 7
Filename F:\Sket4er\Rudy Rotta – Volo Sul Mondo 2017\07 Talk Shows.wav
Peak level 95.5 %
Extraction speed 2.2 X
Track quality 99.9 %
Test CRC 2189B106
Copy CRC 2189B106
Track not present in AccurateRip database
Copy OK
Track 8
Filename F:\Sket4er\Rudy Rotta – Volo Sul Mondo 2017\08 Vuoto Invisibile.wav
Peak level 95.5 %
Extraction speed 2.7 X
Track quality 100.0 %
Test CRC 01408D48
Copy CRC 01408D48
Track not present in AccurateRip database
Copy OK
Track 9
Filename F:\Sket4er\Rudy Rotta – Volo Sul Mondo 2017\09 Uomini.wav
Peak level 95.5 %
Extraction speed 2.6 X
Track quality 99.9 %
Test CRC D0A59AAD
Copy CRC D0A59AAD
Track not present in AccurateRip database
Copy OK
Track 10
Filename F:\Sket4er\Rudy Rotta – Volo Sul Mondo 2017\10 Marmor, Stein Und Eisen Bricht.wav
Peak level 84.3 %
Extraction speed 3.1 X
Track quality 100.0 %
Test CRC AE9B1517
Copy CRC AE9B1517
Track not present in AccurateRip database
Copy OK
None of the tracks are present in the AccurateRip database
No errors occurred
End of status report
---- CUETools DB Plugin V2.1.6
[CTDB TOCID: pfF_d8ANBGR9liZbq38O.S6Ei4w-] disk not present in database
Submit result: pfF_d8ANBGR9liZbq38O.S6Ei4w- has been uploaded
==== Log checksum DC518010DC4408B3869452CA92F9B5C5E15FEFD9A7FFDD048547DF86BA337C01 ====

Содержание индексной карты (.CUE)

REM GENRE "Blues Rock"
REM DATE 2017
REM DISCID 80093B0A
REM COMMENT "ExactAudioCopy v1.1"
PERFORMER "Rudy Rotta"
TITLE "Volo Sul Mondo"
FILE "01 Salva Noi.wav" WAVE
TRACK 01 AUDIO
TITLE "Salva Noi"
PERFORMER "Rudy Rotta"
INDEX 01 00:00:00
FILE "02 Volo Sul Mondo.wav" WAVE
TRACK 02 AUDIO
TITLE "Volo Sul Mondo"
PERFORMER "Rudy Rotta"
INDEX 01 00:00:00
FILE "03 Lady.wav" WAVE
TRACK 03 AUDIO
TITLE "Lady "
PERFORMER "Rudy Rotta"
INDEX 01 00:00:00
FILE "04 Giorno In Piu.wav" WAVE
TRACK 04 AUDIO
TITLE "Giorno In Piu"
PERFORMER "Rudy Rotta"
INDEX 01 00:00:00
FILE "05 So Di Blues.wav" WAVE
TRACK 05 AUDIO
TITLE "So Di Blues"
PERFORMER "Rudy Rotta"
INDEX 01 00:00:00
FILE "06 Vu Cumpra.wav" WAVE
TRACK 06 AUDIO
TITLE "Vu Cumpra"
PERFORMER "Rudy Rotta"
INDEX 01 00:00:00
FILE "07 Talk Shows.wav" WAVE
TRACK 07 AUDIO
TITLE "Talk Shows"
PERFORMER "Rudy Rotta"
INDEX 01 00:00:00
FILE "08 Vuoto Invisibile.wav" WAVE
TRACK 08 AUDIO
TITLE "Vuoto Invisibile"
PERFORMER "Rudy Rotta"
INDEX 01 00:00:00
FILE "09 Uomini.wav" WAVE
TRACK 09 AUDIO
TITLE "Uomini "
PERFORMER "Rudy Rotta"
INDEX 01 00:00:00
FILE "10 Marmor, Stein Und Eisen Bricht.wav" WAVE
TRACK 10 AUDIO
TITLE "Marmor, Stein Und Eisen Bricht"
PERFORMER "Rudy Rotta"
INDEX 01 00:00:00

Лог проверки качества

-----------------------
DON'T MODIFY THIS FILE
-----------------------
PERFORMER: auCDtect Task Manager, ver. 1.5.1RC4 build 1.5.1.5
Copyright (c) 2008-2010 y-soft. All rights reserved
http://y-soft.org
ANALYZER: auCDtect: CD records authenticity detector, version 0.8.2
Copyright (c) 2004 Oleg Berngardt. All rights reserved.
Copyright (c) 2004 Alexander Djourik. All rights reserved.
FILE: 10 Marmor, Stein Und Eisen Bricht.flac
Size: 27643703 Hash: 97AC4EB2B8B7981552A8D1CB746AB99F Accuracy: -m0
Conclusion: CDDA 99%
Signature: A64388A9DE5041BA3EC37D46ED46BD7001B34C40
FILE: 09 Uomini.flac
Size: 36499321 Hash: BDA19837536B8C46FE875A218E059521 Accuracy: -m0
Conclusion: CDDA 100%
Signature: 2A1BEA5F1EFB81947EDFD61C9F8F8A2168A580D2
FILE: 08 Vuoto Invisibile.flac
Size: 19470076 Hash: 361666A958568B50E0CF645A743A4D99 Accuracy: -m0
Conclusion: CDDA 100%
Signature: 4720E63F0F6CFE56E08A18AA29BE1B5162E7D599
FILE: 07 Talk Shows.flac
Size: 24422233 Hash: 93E2701F792523C4D3A0FE51258FA6FC Accuracy: -m0
Conclusion: CDDA 100%
Signature: 6C9045017C663369DD3152994CE4AA902C8DE84B
FILE: 06 Vu Cumpra.flac
Size: 35355520 Hash: 903096A527EAF9A852A24B0B1A82EF90 Accuracy: -m0
Conclusion: CDDA 100%
Signature: 35E44107752D18B37CA9563125228C1F34F49D82
FILE: 05 So Di Blues.flac
Size: 28102221 Hash: F120C88EDCD61A3BCEC5D7A567E0C63D Accuracy: -m0
Conclusion: CDDA 100%
Signature: FAD6E614702AF19BD533A31838A9E637110D8E52
FILE: 04 Giorno In Piu.flac
Size: 32669167 Hash: C72548CBFB9B530F349614DE8EE4BC1E Accuracy: -m0
Conclusion: CDDA 99%
Signature: AE97D7CAFF2246FBBD33C673D91E1A41E9C28458
FILE: 03 Lady.flac
Size: 23072556 Hash: 5DEE558361EF3A2D057FAABF5E5BE54D Accuracy: -m0
Conclusion: CDDA 100%
Signature: 8A84AE227C65098BC77B8920A78C32E2AC4D3DC0
FILE: 02 Volo Sul Mondo.flac
Size: 26792477 Hash: 975B28E1A9BCB74BF856FC9BD46A4D61 Accuracy: -m0
Conclusion: CDDA 99%
Signature: AD5D68CEBA4D2A497BAFCCB5422E8605BE3474B3
FILE: 01 Salva Noi.flac
Size: 23626906 Hash: 1093E531EAC5616911E090FEC9D88C89 Accuracy: -m0
Conclusion: CDDA 100%
Signature: BE2FE78C80A41D3C76C2590ED0AFEA87FF37A180

DR log

foobar2000 1.3.9 / Замер динамического диапазона (DR) 1.1.1
Дата отчёта: 2017-09-14 22:58:04
--------------------------------------------------------------------------------
Анализ: Rudy Rotta / Volo Sul Mondo
--------------------------------------------------------------------------------
DR Пики RMS Продолжительность трека
--------------------------------------------------------------------------------
DR6 -1.57 дБ -9.17 дБ 3:41 01-Salva Noi
DR8 -0.60 дБ -9.95 дБ 3:56 02-Volo Sul Mondo
DR7 -1.34 дБ -9.59 дБ 3:06 03-Lady
DR8 -0.86 дБ -10.69 дБ 4:44 04-Giorno In Piu
DR9 -0.89 дБ -11.53 дБ 4:21 05-So Di Blues
DR8 -0.40 дБ -9.90 дБ 4:37 06-Vu Cumpra
DR9 -0.40 дБ -10.88 дБ 3:29 07-Talk Shows
DR8 -0.40 дБ -9.39 дБ 2:45 08-Vuoto Invisibile
DR9 -0.40 дБ -10.47 дБ 5:00 09-Uomini
DR7 -1.48 дБ -9.95 дБ 3:45 10-Marmor, Stein Und Eisen Bricht
--------------------------------------------------------------------------------
Количество треков: 10
Реальные значения DR: DR8
Частота: 44100 Гц
Каналов: 2
Разрядность: 16
Битрейт: 979 кбит/с
Кодек: FLAC
================================================================================
Доп. информация

Состав

Adrian Persen Steihaug - Guitar, Backing Vocals
Sebastian Tvedtnæs - Vocals
Morten Garberg - Drums, Backing Vocals
Frank Karlsen - Bass, Backing Vocals

If you like the topic, please click share to help develop our site.

To download the file disable ad blocking, and reload the page.

disable adblock How to disable ad blocking?

Download by magnet link 271 MB Download Torrent

Login using:

Similar topics



   
Current time is: 24-Mar 22:06 :: All times are UTC + 3