Josh Alan / Famous & Poor
Жанр: Acoustic Blues
Год издания диска: 1991
Издатель (лейбл): Four Dots Records
Номер по каталогу: FD-1026
Аудиокодек: FLAC (*.flac)
Тип рипа: tracks+.cue
Битрейт аудио: lossless
Продолжительность: 34:12
Источник (релизер): Источник - сеть
Наличие сканов в содержимом раздачи: front+back
Треклист:
1. Josh's Breakdown (2:10)
2. Stone Free (3:35)
3. Love Is Grey (1:38)
4. Greyhound (3:48)
5. Deep River Blues (2:29)
6. Shoe Shine Boy (4:08)
7. Famous & Poor (2:31)
8. Composition 5 (2:10)
9. Composition 6 (2:11)
10. Composition 8 (3:12)
11. Follow Your Heart (3:58)
12. Sleepwalk (2:16)

Лог создания рипа

Exact Audio Copy V1.3 from 2. September 2016
EAC extraction logfile from 14. May 2017, 13:47
Josh Alan / Famous & Poor
Used drive : SONY DVD RW AD-7280S Adapter: 1 ID: 1
Read mode : Secure
Utilize accurate stream : Yes
Defeat audio cache : Yes
Make use of C2 pointers : No
Read offset correction : 48
Overread into Lead-In and Lead-Out : No
Fill up missing offset samples with silence : Yes
Delete leading and trailing silent blocks : No
Null samples used in CRC calculations : Yes
Used interface : Native Win32 interface for Win NT & 2000
Gap handling : Appended to previous track
Used output format : User Defined Encoder
Selected bitrate : 1024 kBit/s
Quality : High
Add ID3 tag : No
Command line compressor : C:\Program Files (x86)\Exact Audio Copy\FLAC\FLAC.EXE
Additional command line options : -8 -e -p -V -T "ARTIST=%artist%" -T "TITLE=%title%" -T "ALBUM=%albumtitle%" -T "DATE=%year%" -T "TRACKNUMBER=%tracknr%" -T "GENRE=%genre%" -T "PERFORMER=%albuminterpret%" -T "COMPOSER=%composer%" %haslyrics%--tag-from-file=LYRICS="%lyricsfile%"%haslyrics% -T "ALBUMARTIST=%albumartist%" -T "DISCNUMBER=%cdnumber%" -T "TOTALDISCS=%totalcds%" -T "TOTALTRACKS=%numtracks%" -T "COMMENT=%comment%" %source% -o %dest%
TOC of the extracted CD
Track | Start | Length | Start sector | End sector
---------------------------------------------------------
1 | 0:00.32 | 2:10.55 | 32 | 9836
2 | 2:11.12 | 3:35.05 | 9837 | 25966
3 | 5:46.17 | 1:38.13 | 25967 | 33329
4 | 7:24.30 | 3:48.67 | 33330 | 50496
5 | 11:13.22 | 2:29.15 | 50497 | 61686
6 | 13:42.37 | 4:08.45 | 61687 | 80331
7 | 17:51.07 | 2:31.35 | 80332 | 91691
8 | 20:22.42 | 2:10.23 | 91692 | 101464
9 | 22:32.65 | 2:11.55 | 101465 | 111344
10 | 24:44.45 | 3:12.52 | 111345 | 125796
11 | 27:57.22 | 3:58.48 | 125797 | 143694
12 | 31:55.70 | 2:16.60 | 143695 | 153954
Track 1
Filename G:\__New\_EAC rips\Josh Alan - Famous & Poor (1991) flac\01 - Josh's Breakdown.wav
Pre-gap length 0:00:02.42
Peak level 67.4 %
Extraction speed 2.3 X
Track quality 100.0 %
Test CRC 66879380
Copy CRC 66879380
Track not present in AccurateRip database
Copy OK
Track 2
Filename G:\__New\_EAC rips\Josh Alan - Famous & Poor (1991) flac\02 - Stone Free.wav
Peak level 85.5 %
Extraction speed 2.7 X
Track quality 100.0 %
Test CRC 6EB4E7B8
Copy CRC 6EB4E7B8
Track not present in AccurateRip database
Copy OK
Track 3
Filename G:\__New\_EAC rips\Josh Alan - Famous & Poor (1991) flac\03 - Love is Grey.wav
Peak level 48.9 %
Extraction speed 2.4 X
Track quality 100.0 %
Test CRC 84FF9472
Copy CRC 84FF9472
Track not present in AccurateRip database
Copy OK
Track 4
Filename G:\__New\_EAC rips\Josh Alan - Famous & Poor (1991) flac\04 - Greyhound.wav
Peak level 76.7 %
Extraction speed 3.0 X
Track quality 100.0 %
Test CRC 1B501BB1
Copy CRC 1B501BB1
Track not present in AccurateRip database
Copy OK
Track 5
Filename G:\__New\_EAC rips\Josh Alan - Famous & Poor (1991) flac\05 - Deep River Blues.wav
Peak level 72.1 %
Extraction speed 2.9 X
Track quality 100.0 %
Test CRC A19BC0DB
Copy CRC A19BC0DB
Track not present in AccurateRip database
Copy OK
Track 6
Filename G:\__New\_EAC rips\Josh Alan - Famous & Poor (1991) flac\06 - Shoe Shine Boy.wav
Peak level 69.6 %
Extraction speed 3.4 X
Track quality 100.0 %
Test CRC 72D313F0
Copy CRC 72D313F0
Track not present in AccurateRip database
Copy OK
Track 7
Filename G:\__New\_EAC rips\Josh Alan - Famous & Poor (1991) flac\07 - Famous & Poor.wav
Peak level 78.4 %
Extraction speed 3.2 X
Track quality 100.0 %
Test CRC 25C0D159
Copy CRC 25C0D159
Track not present in AccurateRip database
Copy OK
Track 8
Filename G:\__New\_EAC rips\Josh Alan - Famous & Poor (1991) flac\08 - Composition 5.wav
Peak level 78.7 %
Extraction speed 3.2 X
Track quality 100.0 %
Test CRC CC299614
Copy CRC CC299614
Track not present in AccurateRip database
Copy OK
Track 9
Filename G:\__New\_EAC rips\Josh Alan - Famous & Poor (1991) flac\09 - Composition 6.wav
Peak level 62.9 %
Extraction speed 3.3 X
Track quality 100.0 %
Test CRC EF9CBC9D
Copy CRC EF9CBC9D
Track not present in AccurateRip database
Copy OK
Track 10
Filename G:\__New\_EAC rips\Josh Alan - Famous & Poor (1991) flac\10 - Composition 8.wav
Peak level 44.7 %
Extraction speed 3.7 X
Track quality 100.0 %
Test CRC BE1488F9
Copy CRC BE1488F9
Track not present in AccurateRip database
Copy OK
Track 11
Filename G:\__New\_EAC rips\Josh Alan - Famous & Poor (1991) flac\11 - Follow Your Heart.wav
Peak level 61.5 %
Extraction speed 4.0 X
Track quality 100.0 %
Test CRC CB01D39C
Copy CRC CB01D39C
Track not present in AccurateRip database
Copy OK
Track 12
Filename G:\__New\_EAC rips\Josh Alan - Famous & Poor (1991) flac\12 - Sleepwalk.wav
Peak level 75.1 %
Extraction speed 3.0 X
Track quality 99.9 %
Test CRC 434E25A8
Copy CRC 434E25A8
Track not present in AccurateRip database
Copy OK
None of the tracks are present in the AccurateRip database
No errors occurred
End of status report
---- CUETools DB Plugin V2.1.6
[CTDB TOCID: u1At3GHebDJrB056ir3Yh8LkNSM-] disk not present in database
Submit result: u1At3GHebDJrB056ir3Yh8LkNSM- has been uploaded
==== Log checksum 655981973FC4621B10CC9531CDC0D575FC4AD7AD330794B47D6F112C0CDA48D0 ====

Содержание индексной карты (.CUE)

REM GENRE Blues
REM DATE 1991
REM DISCID A308040C
REM COMMENT "ExactAudioCopy v1.3"
PERFORMER "Josh Alan"
TITLE "Famous & Poor"
REM COMPOSER ""
FILE "01 - Josh's Breakdown.wav" WAVE
TRACK 01 AUDIO
TITLE "Josh's Breakdown"
PERFORMER "Josh Alan"
REM COMPOSER ""
PREGAP 00:00:32
INDEX 01 00:00:00
FILE "02 - Stone Free.wav" WAVE
TRACK 02 AUDIO
TITLE "Stone Free"
PERFORMER "Josh Alan"
REM COMPOSER ""
INDEX 01 00:00:00
FILE "03 - Love is Grey.wav" WAVE
TRACK 03 AUDIO
TITLE "Love is Grey"
PERFORMER "Josh Alan"
REM COMPOSER ""
INDEX 01 00:00:00
FILE "04 - Greyhound.wav" WAVE
TRACK 04 AUDIO
TITLE "Greyhound"
PERFORMER "Josh Alan"
REM COMPOSER ""
INDEX 01 00:00:00
FILE "05 - Deep River Blues.wav" WAVE
TRACK 05 AUDIO
TITLE "Deep River Blues"
PERFORMER "Josh Alan"
REM COMPOSER ""
INDEX 01 00:00:00
FILE "06 - Shoe Shine Boy.wav" WAVE
TRACK 06 AUDIO
TITLE "Shoe Shine Boy"
PERFORMER "Josh Alan"
REM COMPOSER ""
INDEX 01 00:00:00
FILE "07 - Famous & Poor.wav" WAVE
TRACK 07 AUDIO
TITLE "Famous & Poor"
PERFORMER "Josh Alan"
REM COMPOSER ""
INDEX 01 00:00:00
FILE "08 - Composition 5.wav" WAVE
TRACK 08 AUDIO
TITLE "Composition 5"
PERFORMER "Josh Alan"
REM COMPOSER ""
INDEX 01 00:00:00
FILE "09 - Composition 6.wav" WAVE
TRACK 09 AUDIO
TITLE "Composition 6"
PERFORMER "Josh Alan"
REM COMPOSER ""
INDEX 01 00:00:00
FILE "10 - Composition 8.wav" WAVE
TRACK 10 AUDIO
TITLE "Composition 8"
PERFORMER "Josh Alan"
REM COMPOSER ""
INDEX 01 00:00:00
FILE "11 - Follow Your Heart.wav" WAVE
TRACK 11 AUDIO
TITLE "Follow Your Heart"
PERFORMER "Josh Alan"
REM COMPOSER ""
INDEX 01 00:00:00
FILE "12 - Sleepwalk.wav" WAVE
TRACK 12 AUDIO
TITLE "Sleepwalk"
PERFORMER "Josh Alan"
REM COMPOSER ""
INDEX 01 00:00:00

Лог проверки качества

AUDIOCHECKER v2.0 beta (build 457) - by Dester - [email protected]
~~~~~~~~~~~~~~~~~~~~~~~~~~~~~~~~~~
-=== DO NOT EDIT THIS FILE! ===-
Path: ...\1991 Josh Alan - Famous & Poor (FD 1026)
01 -=- 01 - Josh's Breakdown.flac -=- CDDA (100%)
02 -=- 02 - Stone Free.flac -=- CDDA (100%)
03 -=- 03 - Love is Grey.flac -=- CDDA (100%)
04 -=- 04 - Greyhound.flac -=- CDDA (100%)
05 -=- 05 - Deep River Blues.flac -=- CDDA (100%)
06 -=- 06 - Shoe Shine Boy.flac -=- CDDA (100%)
07 -=- 07 - Famous & Poor.flac -=- CDDA (100%)
08 -=- 08 - Composition 5.flac -=- CDDA (100%)
09 -=- 09 - Composition 6.flac -=- CDDA (100%)
10 -=- 10 - Composition 8.flac -=- CDDA (100%)
11 -=- 11 - Follow Your Heart.flac -=- CDDA (100%)
12 -=- 12 - Sleepwalk.flac -=- CDDA (100%)
Summary 100,00% CDDA
246173940

If you like the topic, please click share to help develop our site.

To download the file disable ad blocking, and reload the page.

disable adblock How to disable ad blocking?

Download by magnet link 182 MB Download Torrent

Login using:

Similar topics



   
Current time is: 17-Jun 01:49 :: All times are UTC + 3