Scott Ellison - Good Morning Midnight
Жанр: Modern Electric Blues
Страна-производитель диска: RU
Год издания диска: 2017
Издатель (лейбл): Red Parlor Records
Номер по каталогу: RDP-1704
Страна: USA
Аудиокодек: FLAC (*.flac)
Тип рипа: tracks+.cue
Битрейт аудио: lossless
Продолжительность: 00:45:13
Источник (релизер): Sket4er
Наличие сканов в содержимом раздачи: да
Треклист:
01. Sanctified 03:51
02. No Man's Land 03:17
03. Gone For Good 03:46
04. Last Breath 04:32
05. Hope And Faith 03:28
06. Another Day In Paradise 02:37
07. You Made A Mess (Outta Me) 04:05
08. Good Morning Midnight 03:43
09. Tangled 03:18
10. Wheelhouse 02:07
11. Big City 03:03
12. Mysterious 03:15
13. When You Loves Me Like This 04:11

Лог создания рипа

Exact Audio Copy V1.1 from 23. June 2015
EAC extraction logfile from 14. September 2017, 0:03
Scott Ellison / Good Morning Midnight
Used drive : TSSTcorpCDDVDW SH-224DB Adapter: 1 ID: 0
Read mode : Secure
Utilize accurate stream : Yes
Defeat audio cache : Yes
Make use of C2 pointers : No
Read offset correction : 6
Overread into Lead-In and Lead-Out : No
Fill up missing offset samples with silence : Yes
Delete leading and trailing silent blocks : No
Null samples used in CRC calculations : Yes
Used interface : Native Win32 interface for Win NT & 2000
Gap handling : Appended to previous track
Used output format : User Defined Encoder
Selected bitrate : 1024 kBit/s
Quality : High
Add ID3 tag : No
Command line compressor : C:\Program Files (x86)\Exact Audio Copy\win64\flac.exe
Additional command line options : -8 -V -T "ARTIST=%artist%" -T "TITLE=%title%" -T "ALBUM=%albumtitle%" -T "DATE=%year%" -T "TRACKNUMBER=%tracknr%" -T "GENRE=%genre%" -T "COMMENT=%comment%" %source% -o %dest%
TOC of the extracted CD
Track | Start | Length | Start sector | End sector
---------------------------------------------------------
1 | 0:00.00 | 3:50.68 | 0 | 17317
2 | 3:50.68 | 3:17.04 | 17318 | 32096
3 | 7:07.72 | 3:45.41 | 32097 | 49012
4 | 10:53.38 | 4:32.06 | 49013 | 69418
5 | 15:25.44 | 3:28.18 | 69419 | 85036
6 | 18:53.62 | 2:37.02 | 85037 | 96813
7 | 21:30.64 | 4:04.54 | 96814 | 115167
8 | 25:35.43 | 3:43.06 | 115168 | 131898
9 | 29:18.49 | 3:18.09 | 131899 | 146757
10 | 32:36.58 | 2:07.32 | 146758 | 156314
11 | 34:44.15 | 3:02.63 | 156315 | 170027
12 | 37:47.03 | 3:15.00 | 170028 | 184652
13 | 41:02.03 | 4:10.73 | 184653 | 203475
Track 1
Filename F:\Sket4er\Scott Ellison – Good Morning Midnight 2017\01 Sanctified.wav
Pre-gap length 0:00:02.00
Peak level 98.4 %
Extraction speed 1.9 X
Track quality 100.0 %
Test CRC B233ECC1
Copy CRC B233ECC1
Track not present in AccurateRip database
Copy OK
Track 2
Filename F:\Sket4er\Scott Ellison – Good Morning Midnight 2017\02 No Man's Land.wav
Peak level 96.5 %
Extraction speed 2.0 X
Track quality 100.0 %
Test CRC C821508D
Copy CRC C821508D
Track not present in AccurateRip database
Copy OK
Track 3
Filename F:\Sket4er\Scott Ellison – Good Morning Midnight 2017\03 Gone For Good.wav
Peak level 98.7 %
Extraction speed 2.2 X
Track quality 100.0 %
Test CRC 0011FE30
Copy CRC 0011FE30
Track not present in AccurateRip database
Copy OK
Track 4
Filename F:\Sket4er\Scott Ellison – Good Morning Midnight 2017\04 Last Breath.wav
Peak level 98.7 %
Extraction speed 2.4 X
Track quality 100.0 %
Test CRC BBDBE7C3
Copy CRC BBDBE7C3
Track not present in AccurateRip database
Copy OK
Track 5
Filename F:\Sket4er\Scott Ellison – Good Morning Midnight 2017\05 Hope And Faith.wav
Peak level 98.7 %
Extraction speed 2.5 X
Track quality 100.0 %
Test CRC 49B104DF
Copy CRC 49B104DF
Track not present in AccurateRip database
Copy OK
Track 6
Filename F:\Sket4er\Scott Ellison – Good Morning Midnight 2017\06 Another Day In Paradise.wav
Peak level 97.6 %
Extraction speed 1.9 X
Track quality 99.9 %
Test CRC 8EF4C4CB
Copy CRC 8EF4C4CB
Track not present in AccurateRip database
Copy OK
Track 7
Filename F:\Sket4er\Scott Ellison – Good Morning Midnight 2017\07 You Made A Mess (Outta Me).wav
Peak level 99.3 %
Extraction speed 2.8 X
Track quality 100.0 %
Test CRC 165B1863
Copy CRC 165B1863
Track not present in AccurateRip database
Copy OK
Track 8
Filename F:\Sket4er\Scott Ellison – Good Morning Midnight 2017\08 Good Morning Midnight.wav
Peak level 82.9 %
Extraction speed 2.2 X
Track quality 99.9 %
Test CRC C633254A
Copy CRC C633254A
Track not present in AccurateRip database
Copy OK
Track 9
Filename F:\Sket4er\Scott Ellison – Good Morning Midnight 2017\09 Tangled.wav
Peak level 92.6 %
Extraction speed 2.9 X
Track quality 100.0 %
Test CRC CFFDFAD5
Copy CRC CFFDFAD5
Track not present in AccurateRip database
Copy OK
Track 10
Filename F:\Sket4er\Scott Ellison – Good Morning Midnight 2017\10 Wheelhouse.wav
Peak level 89.0 %
Extraction speed 2.7 X
Track quality 100.0 %
Test CRC DE73A2D6
Copy CRC DE73A2D6
Track not present in AccurateRip database
Copy OK
Track 11
Filename F:\Sket4er\Scott Ellison – Good Morning Midnight 2017\11 Big City.wav
Peak level 98.7 %
Extraction speed 3.0 X
Track quality 100.0 %
Test CRC 22A9E666
Copy CRC 22A9E666
Track not present in AccurateRip database
Copy OK
Track 12
Filename F:\Sket4er\Scott Ellison – Good Morning Midnight 2017\12 Mysterious.wav
Peak level 95.3 %
Extraction speed 3.1 X
Track quality 100.0 %
Test CRC 57F40B56
Copy CRC 57F40B56
Track not present in AccurateRip database
Copy OK
Track 13
Filename F:\Sket4er\Scott Ellison – Good Morning Midnight 2017\13 When You Loves Me Like This.wav
Peak level 100.0 %
Extraction speed 2.7 X
Track quality 99.9 %
Test CRC CBEEA773
Copy CRC CBEEA773
Track not present in AccurateRip database
Copy OK
None of the tracks are present in the AccurateRip database
No errors occurred
End of status report
---- CUETools DB Plugin V2.1.6
[CTDB TOCID: h4nshU5QzZ7ZWbfV9ZtbTBWFWJM-] database access error: Невозможно разрешить удаленное имя: 'db.cuetools.net'
==== Log checksum 68CA1CD2AEF4567B77930EFFEF82E90803CC24762299A49C6DF8F11D16197049 ====

Содержание индексной карты (.CUE)

REM GENRE "Blues Rock"
REM DATE 2017
REM DISCID BA0A990D
REM COMMENT "ExactAudioCopy v1.1"
PERFORMER "Scott Ellison"
TITLE "Good Morning Midnight"
FILE "01 Sanctified.wav" WAVE
TRACK 01 AUDIO
TITLE "Sanctified"
PERFORMER "Scott Ellison"
INDEX 01 00:00:00
FILE "02 No Man's Land.wav" WAVE
TRACK 02 AUDIO
TITLE "No Man's Land"
PERFORMER "Scott Ellison"
INDEX 01 00:00:00
FILE "03 Gone For Good.wav" WAVE
TRACK 03 AUDIO
TITLE "Gone For Good"
PERFORMER "Scott Ellison"
INDEX 01 00:00:00
FILE "04 Last Breath.wav" WAVE
TRACK 04 AUDIO
TITLE "Last Breath"
PERFORMER "Scott Ellison"
INDEX 01 00:00:00
FILE "05 Hope And Faith.wav" WAVE
TRACK 05 AUDIO
TITLE "Hope And Faith"
PERFORMER "Scott Ellison"
INDEX 01 00:00:00
FILE "06 Another Day In Paradise.wav" WAVE
TRACK 06 AUDIO
TITLE "Another Day In Paradise"
PERFORMER "Scott Ellison"
INDEX 01 00:00:00
FILE "07 You Made A Mess (Outta Me).wav" WAVE
TRACK 07 AUDIO
TITLE "You Made A Mess (Outta Me)"
PERFORMER "Scott Ellison"
INDEX 01 00:00:00
FILE "08 Good Morning Midnight.wav" WAVE
TRACK 08 AUDIO
TITLE "Good Morning Midnight"
PERFORMER "Scott Ellison"
INDEX 01 00:00:00
FILE "09 Tangled.wav" WAVE
TRACK 09 AUDIO
TITLE "Tangled"
PERFORMER "Scott Ellison"
INDEX 01 00:00:00
FILE "10 Wheelhouse.wav" WAVE
TRACK 10 AUDIO
TITLE "Wheelhouse"
PERFORMER "Scott Ellison"
INDEX 01 00:00:00
FILE "11 Big City.wav" WAVE
TRACK 11 AUDIO
TITLE "Big City"
PERFORMER "Scott Ellison"
INDEX 01 00:00:00
FILE "12 Mysterious.wav" WAVE
TRACK 12 AUDIO
TITLE "Mysterious"
PERFORMER "Scott Ellison"
INDEX 01 00:00:00
FILE "13 When You Loves Me Like This.wav" WAVE
TRACK 13 AUDIO
TITLE "When You Loves Me Like This"
PERFORMER "Scott Ellison"
INDEX 01 00:00:00

Лог проверки качества

-----------------------
DON'T MODIFY THIS FILE
-----------------------
PERFORMER: auCDtect Task Manager, ver. 1.5.1RC4 build 1.5.1.5
Copyright (c) 2008-2010 y-soft. All rights reserved
http://y-soft.org
ANALYZER: auCDtect: CD records authenticity detector, version 0.8.2
Copyright (c) 2004 Oleg Berngardt. All rights reserved.
Copyright (c) 2004 Alexander Djourik. All rights reserved.
FILE: 13 When You Loves Me Like This.flac
Size: 28878017 Hash: 5243C27DB6DF88B5B5849566D6F87BBA Accuracy: -m0
Conclusion: CDDA 100%
Signature: AB32AA0F00B72E5543ED9257C4C64319007BB2E6
FILE: 12 Mysterious.flac
Size: 23039636 Hash: 59A7AFE7F1D27171CAA064428B138B84 Accuracy: -m0
Conclusion: CDDA 100%
Signature: C6A8A82D2FA0AF5288764AACF46D97F3B4675219
FILE: 11 Big City.flac
Size: 22731658 Hash: E8FD7930AE98A85BADC84178170D24DA Accuracy: -m0
Conclusion: CDDA 100%
Signature: 675AF7F4099218CEF725DDB39BD7B514267832E8
FILE: 10 Wheelhouse.flac
Size: 14192173 Hash: 01271C6F17376392E244FCFDC40FCEC9 Accuracy: -m0
Conclusion: CDDA 100%
Signature: 67CCAB18C9DEFA9F8B9268CBB1B927F8982AFA2A
FILE: 09 Tangled.flac
Size: 22219316 Hash: C4E24B323852E9EEE3EEDF05C5577377 Accuracy: -m0
Conclusion: CDDA 100%
Signature: 8719D89FD599814D0D2551471FF65C9DB9989BDA
FILE: 08 Good Morning Midnight.flac
Size: 21733864 Hash: A04F20FB064EF0965F3CF3AD299F6055 Accuracy: -m0
Conclusion: CDDA 100%
Signature: AB915E60052FFB7DC643B5E56038FC656F2B186D
FILE: 07 You Made A Mess (Outta Me).flac
Size: 27239068 Hash: 8961EF7D6C211214EED07B221BEC44A7 Accuracy: -m0
Conclusion: CDDA 100%
Signature: 030ECE70C94AAA6F4CFD5E07892A466662FF8AEA
FILE: 06 Another Day In Paradise.flac
Size: 18023217 Hash: 7FAEFEBE552A1F02271DEBBB7C2CBB90 Accuracy: -m0
Conclusion: CDDA 100%
Signature: B168B40CF0C122C4E5A087297F282DF8968A010D
FILE: 05 Hope And Faith.flac
Size: 21769051 Hash: 5B15A2496BBBA5D981575E0BBF58F695 Accuracy: -m0
Conclusion: CDDA 100%
Signature: EBE9EEC85D3A690E1886CE36B57E6644F872DC0A
FILE: 04 Last Breath.flac
Size: 30849285 Hash: 878728C05B7B136B3010B3B48B2EDFC4 Accuracy: -m0
Conclusion: CDDA 100%
Signature: FC97C72048041EFF0D00E96E4E2E93516FA94381
FILE: 03 Gone For Good.flac
Size: 25760697 Hash: E68C3590E2BE08EE56B63CDA7AA1B01F Accuracy: -m0
Conclusion: CDDA 100%
Signature: 3974D3AE2463D0C840DEAE72D547E2FDF86007CE
FILE: 02 No Man's Land.flac
Size: 21312901 Hash: 37AFD69919506BD0F492CB0F29A25B5D Accuracy: -m0
Conclusion: CDDA 100%
Signature: BD5D846672BCF353CF49F9E99BFF9EC2E0DCFF37
FILE: 01 Sanctified.flac
Size: 26226889 Hash: 6C579AEE671D51016A3B0E5D25D7D315 Accuracy: -m0
Conclusion: CDDA 99%
Signature: 4D55F7860F3FB3E16F3B9973F8DA31C58A7E9142

DR log

foobar2000 1.3.9 / Замер динамического диапазона (DR) 1.1.1
Дата отчёта: 2017-09-14 11:40:36
--------------------------------------------------------------------------------
Анализ: Scott Ellison / Good Morning Midnight
--------------------------------------------------------------------------------
DR Пики RMS Продолжительность трека
--------------------------------------------------------------------------------
DR8 -0.13 дБ -10.17 дБ 3:51 01-Sanctified
DR9 -0.30 дБ -11.25 дБ 3:17 02-No Man's Land
DR11 -0.11 дБ -12.91 дБ 3:46 03-Gone For Good
DR10 -0.11 дБ -11.83 дБ 4:32 04-Last Breath
DR8 -0.11 дБ -10.34 дБ 3:28 05-Hope And Faith
DR10 -0.21 дБ -12.04 дБ 2:37 06-Another Day In Paradise
DR9 -0.05 дБ -10.76 дБ 4:05 07-You Made A Mess (Outta Me)
DR8 -1.62 дБ -11.30 дБ 3:43 08-Good Morning Midnight
DR10 -0.66 дБ -12.67 дБ 3:18 09-Tangled
DR8 -1.01 дБ -11.01 дБ 2:07 10-Wheelhouse
DR10 -0.11 дБ -11.72 дБ 3:03 11-Big City
DR10 -0.42 дБ -11.76 дБ 3:15 12-Mysterious
DR9 0.00 дБ -10.47 дБ 4:11 13-When You Loves Me Like This
--------------------------------------------------------------------------------
Количество треков: 13
Реальные значения DR: DR9
Частота: 44100 Гц
Каналов: 2
Разрядность: 16
Битрейт: 918 кбит/с
Кодек: FLAC
================================================================================
Доп. информация

Состав

Chris Campell - lead vocal #1
Marcy Levy - background vocals #1
Scott Ellison - lead vocals, background vocals, lead and rhythm guitar, electric slide guitar, bass #2,3,11
Charles Tuberville - guitar, #5,6,8,10,12; bass #6,12 drums on #6,7
Brad Absher - baritone guitar #4
Jon Parris - bass #5,7,10
Gary Gilmore - bass #1,8
Matt Kohl - bass #4,9
Ron Martin - bass #13
Jon Glazer - Hammond B-3 & piano #7
Brian Lee - Hammond B3 & piano #8
Danny Timms - Hammond B3 & piano #5,10
Hank Charles - Hammond B3 & piano #4,9,13
Chuck Blackwell - drums #1
David Teegarden - drums #5,8,10
Robbie Armstrong - #4,5,7,9,10
Ron McRorey - drums & percussion #4
Tim Smith - drums #13
Mike Bennett - trumpet #10
Steve Ham - trombone #10
Jimmy Jr. Markman - harmonica #8,13
Ознакомиться можно здесь

If you like the topic, please click share to help develop our site.

To download the file disable ad blocking, and reload the page.

disable adblock How to disable ad blocking?

Download by magnet link 296 MB Download Torrent

Login using:

Similar topics



   
Current time is: 24-Mar 22:44 :: All times are UTC + 3