The Nighthawks - All You Gotta Do
Жанр: Modern Electric Blues
Страна-производитель диска: RU
Год издания диска: 2017
Издатель (лейбл): Eller Soul
Номер по каталогу: ER1707-029
Страна: USA
Аудиокодек: FLAC (*.flac)
Тип рипа: tracks+.cue
Битрейт аудио: lossless
Продолжительность: 00:42:11
Источник (релизер): Sket4er
Наличие сканов в содержимом раздачи: да
Треклист:
01.
03:10
02. When I Go Away 04:12
03. Baby, I Want To Be Loved 03:45
04. Let's Burn Down the Cornfield 03:07
05. Another Day 03:03
06. Voodoo Doll 02:54
07. Ninety Nine 02:54
08. Three Times Your Fool 04:44
09. Isn't That So 03:52
10. Snake Drive 03:07
11. Blues For Brother John 03:13
12. Dirty Water 04:07

Лог создания рипа

Exact Audio Copy V1.1 from 23. June 2015
EAC extraction logfile from 13. September 2017, 19:59
The Nighthawks / All You Gotta Do
Used drive : TSSTcorpCDDVDW SH-224DB Adapter: 1 ID: 0
Read mode : Secure
Utilize accurate stream : Yes
Defeat audio cache : Yes
Make use of C2 pointers : No
Read offset correction : 6
Overread into Lead-In and Lead-Out : No
Fill up missing offset samples with silence : Yes
Delete leading and trailing silent blocks : No
Null samples used in CRC calculations : Yes
Used interface : Native Win32 interface for Win NT & 2000
Gap handling : Appended to previous track
Used output format : User Defined Encoder
Selected bitrate : 1024 kBit/s
Quality : High
Add ID3 tag : No
Command line compressor : C:\Program Files (x86)\Exact Audio Copy\win64\flac.exe
Additional command line options : -8 -V -T "ARTIST=%artist%" -T "TITLE=%title%" -T "ALBUM=%albumtitle%" -T "DATE=%year%" -T "TRACKNUMBER=%tracknr%" -T "GENRE=%genre%" -T "COMMENT=%comment%" %source% -o %dest%
TOC of the extracted CD
Track | Start | Length | Start sector | End sector
---------------------------------------------------------
1 | 0:00.00 | 3:10.00 | 0 | 14249
2 | 3:10.00 | 4:12.19 | 14250 | 33168
3 | 7:22.19 | 3:45.14 | 33169 | 50057
4 | 11:07.33 | 3:06.74 | 50058 | 64081
5 | 14:14.32 | 3:03.27 | 64082 | 77833
6 | 17:17.59 | 2:54.26 | 77834 | 90909
7 | 20:12.10 | 2:54.12 | 90910 | 103971
8 | 23:06.22 | 4:44.33 | 103972 | 125304
9 | 27:50.55 | 3:52.39 | 125305 | 142743
10 | 31:43.19 | 3:06.72 | 142744 | 156765
11 | 34:50.16 | 3:13.21 | 156766 | 171261
12 | 38:03.37 | 4:07.11 | 171262 | 189797
Track 1
Filename F:\Sket4er\The Nighthawks – All You Gotta Do 2017\01 That's All You Gotta Do.wav
Pre-gap length 0:00:02.00
Peak level 99.9 %
Extraction speed 1.8 X
Track quality 100.0 %
Test CRC 3E395C6C
Copy CRC 3E395C6C
Track not present in AccurateRip database
Copy OK
Track 2
Filename F:\Sket4er\The Nighthawks – All You Gotta Do 2017\02 When I Go Away.wav
Peak level 98.9 %
Extraction speed 2.1 X
Track quality 100.0 %
Test CRC B68F6400
Copy CRC B68F6400
Track not present in AccurateRip database
Copy OK
Track 3
Filename F:\Sket4er\The Nighthawks – All You Gotta Do 2017\03 Baby, I Want To Be Loved.wav
Peak level 98.9 %
Extraction speed 2.2 X
Track quality 100.0 %
Test CRC 01D40781
Copy CRC 01D40781
Track not present in AccurateRip database
Copy OK
Track 4
Filename F:\Sket4er\The Nighthawks – All You Gotta Do 2017\04 Let's Burn Down The Cornfield.wav
Peak level 98.9 %
Extraction speed 2.3 X
Track quality 100.0 %
Test CRC 122BA7FA
Copy CRC 122BA7FA
Track not present in AccurateRip database
Copy OK
Track 5
Filename F:\Sket4er\The Nighthawks – All You Gotta Do 2017\05 Another Day.wav
Peak level 98.9 %
Extraction speed 2.4 X
Track quality 100.0 %
Test CRC BE47C73C
Copy CRC BE47C73C
Track not present in AccurateRip database
Copy OK
Track 6
Filename F:\Sket4er\The Nighthawks – All You Gotta Do 2017\06 VooDoo Doll.wav
Peak level 98.9 %
Extraction speed 2.4 X
Track quality 100.0 %
Test CRC 7652314C
Copy CRC 7652314C
Track not present in AccurateRip database
Copy OK
Track 7
Filename F:\Sket4er\The Nighthawks – All You Gotta Do 2017\07 Ninety Nine.wav
Peak level 98.9 %
Extraction speed 2.5 X
Track quality 100.0 %
Test CRC DE69BF1A
Copy CRC DE69BF1A
Track not present in AccurateRip database
Copy OK
Track 8
Filename F:\Sket4er\The Nighthawks – All You Gotta Do 2017\08 Three Times Your Fool.wav
Peak level 98.9 %
Extraction speed 2.9 X
Track quality 100.0 %
Test CRC 59115E17
Copy CRC 59115E17
Track not present in AccurateRip database
Copy OK
Track 9
Filename F:\Sket4er\The Nighthawks – All You Gotta Do 2017\09 Isn't That So.wav
Peak level 98.9 %
Extraction speed 2.9 X
Track quality 100.0 %
Test CRC 4DD1AABF
Copy CRC 4DD1AABF
Track not present in AccurateRip database
Copy OK
Track 10
Filename F:\Sket4er\The Nighthawks – All You Gotta Do 2017\10 Snake Drive.wav
Peak level 98.9 %
Extraction speed 2.9 X
Track quality 100.0 %
Test CRC 0D387438
Copy CRC 0D387438
Track not present in AccurateRip database
Copy OK
Track 11
Filename F:\Sket4er\The Nighthawks – All You Gotta Do 2017\11 Blues For Brother John.wav
Peak level 98.9 %
Extraction speed 3.0 X
Track quality 100.0 %
Test CRC 9225C9D5
Copy CRC 9225C9D5
Track not present in AccurateRip database
Copy OK
Track 12
Filename F:\Sket4er\The Nighthawks – All You Gotta Do 2017\12 Dirty Water.wav
Peak level 98.9 %
Extraction speed 3.2 X
Track quality 100.0 %
Test CRC 388FCAC7
Copy CRC 388FCAC7
Track not present in AccurateRip database
Copy OK
None of the tracks are present in the AccurateRip database
No errors occurred
End of status report
---- CUETools DB Plugin V2.1.6
[CTDB TOCID: Y57.T6RzLMRrxUR5Bkh_.H2BEcE-] disk not present in database
Submit result: Y57.T6RzLMRrxUR5Bkh_.H2BEcE- has been uploaded
==== Log checksum 41020F4958AFBFFA4884106E474BF90FF6AAA0BAB59E1AEA4FE5D556BB09FD92 ====

Содержание индексной карты (.CUE)

REM GENRE "Blues Rock"
REM DATE 2017
REM DISCID A809E20C
REM COMMENT "ExactAudioCopy v1.1"
PERFORMER "The Nighthawks"
TITLE "All You Gotta Do"
FILE "01 That's All You Gotta Do.wav" WAVE
TRACK 01 AUDIO
TITLE "That's All You Gotta Do"
PERFORMER "The Nighthawks"
INDEX 01 00:00:00
FILE "02 When I Go Away.wav" WAVE
TRACK 02 AUDIO
TITLE "When I Go Away"
PERFORMER "The Nighthawks"
INDEX 01 00:00:00
FILE "03 Baby, I Want To Be Loved.wav" WAVE
TRACK 03 AUDIO
TITLE "Baby, I Want To Be Loved"
PERFORMER "The Nighthawks"
INDEX 01 00:00:00
FILE "04 Let's Burn Down The Cornfield.wav" WAVE
TRACK 04 AUDIO
TITLE "Let's Burn Down The Cornfield"
PERFORMER "The Nighthawks"
INDEX 01 00:00:00
FILE "05 Another Day.wav" WAVE
TRACK 05 AUDIO
TITLE "Another Day"
PERFORMER "The Nighthawks"
INDEX 01 00:00:00
FILE "06 VooDoo Doll.wav" WAVE
TRACK 06 AUDIO
TITLE "VooDoo Doll"
PERFORMER "The Nighthawks"
INDEX 01 00:00:00
FILE "07 Ninety Nine.wav" WAVE
TRACK 07 AUDIO
TITLE "Ninety Nine"
PERFORMER "The Nighthawks"
INDEX 01 00:00:00
FILE "08 Three Times Your Fool.wav" WAVE
TRACK 08 AUDIO
TITLE "Three Times Your Fool"
PERFORMER "The Nighthawks"
INDEX 01 00:00:00
FILE "09 Isn't That So.wav" WAVE
TRACK 09 AUDIO
TITLE "Isn't That So"
PERFORMER "The Nighthawks"
INDEX 01 00:00:00
FILE "10 Snake Drive.wav" WAVE
TRACK 10 AUDIO
TITLE "Snake Drive"
PERFORMER "The Nighthawks"
INDEX 01 00:00:00
FILE "11 Blues For Brother John.wav" WAVE
TRACK 11 AUDIO
TITLE "Blues For Brother John"
PERFORMER "The Nighthawks"
INDEX 01 00:00:00
FILE "12 Dirty Water.wav" WAVE
TRACK 12 AUDIO
TITLE "Dirty Water"
PERFORMER "The Nighthawks"
INDEX 01 00:00:00

Лог проверки качества

-----------------------
DON'T MODIFY THIS FILE
-----------------------
PERFORMER: auCDtect Task Manager, ver. 1.5.1RC4 build 1.5.1.5
Copyright (c) 2008-2010 y-soft. All rights reserved
http://y-soft.org
ANALYZER: auCDtect: CD records authenticity detector, version 0.8.2
Copyright (c) 2004 Oleg Berngardt. All rights reserved.
Copyright (c) 2004 Alexander Djourik. All rights reserved.
FILE: 12 Dirty Water.flac
Size: 26913949 Hash: CE3ED08DA3807621E76C752739352077 Accuracy: -m0
Conclusion: CDDA 100%
Signature: 031F2231DFA096A953514CDB7602F779683ECD91
FILE: 11 Blues For Brother John.flac
Size: 19263618 Hash: 1848D21CD28C030352B7A582C9221074 Accuracy: -m0
Conclusion: MPEG 93%
Signature: 05DD5052B8DACAFBB33193511E5C3238D73A7A1C
FILE: 10 Snake Drive.flac
Size: 21405484 Hash: D6DC88103E522E43C009CAFCA5A0BB18 Accuracy: -m0
Conclusion: CDDA 100%
Signature: 58D83E203425BF26E72029DAFD8D063D715A3F46
FILE: 09 Isn't That So.flac
Size: 25729954 Hash: A8EF63A9A3EAAFE64D41D810DF0E8F33 Accuracy: -m0
Conclusion: CDDA 100%
Signature: 8728909CB2804384796DD440525A33E5D4EE23FB
FILE: 08 Three Times Your Fool.flac
Size: 29236021 Hash: 82E0D76E85AA88FF763C18C770190371 Accuracy: -m0
Conclusion: CDDA 92%
Signature: 87F2F5D7C83E6048454BEEDF671204E7C601BE06
FILE: 07 Ninety Nine.flac
Size: 18976750 Hash: 9B55C09D8D62CB728C1AD9A139743177 Accuracy: -m0
Conclusion: CDDA 100%
Signature: 53BAF4E7BE129F35DBAC7CDCB20D108A73523608
FILE: 06 VooDoo Doll.flac
Size: 19701196 Hash: D16CFB128227D43CC7B0AD0E1441BC92 Accuracy: -m0
Conclusion: CDDA 100%
Signature: 354C864D24780D038ACCD32C1FF75CEAA63FE712
FILE: 05 Another Day.flac
Size: 20244435 Hash: 565EE4F6043F59E6004067E36E5A9B7A Accuracy: -m0
Conclusion: CDDA 100%
Signature: DC2D24C30499389387BB30144794E4095D908499
FILE: 04 Let's Burn Down The Cornfield.flac
Size: 17440186 Hash: 32445E96B9058A3934E6D818F6A352F0 Accuracy: -m0
Conclusion: MPEG 93%
Signature: EA5AB059F9FEC5E46086E43CB7FA54815D9B9765
FILE: 03 Baby, I Want To Be Loved.flac
Size: 24110188 Hash: 1FDDFE0E8A34D2013D4ECFC3BBB0DBC4 Accuracy: -m0
Conclusion: CDDA 100%
Signature: F31FF82AA59637C6F22A896A6EE43BBF8E6DECEA
FILE: 02 When I Go Away.flac
Size: 26532019 Hash: 65C2A6BF3DEEB4F22DC09B6D748BE572 Accuracy: -m0
Conclusion: CDDA 85%
Signature: 9A3414E92F1CD07C04C3051191302A489E8413FC
FILE: 01 That's All You Gotta Do.flac
Size: 21946717 Hash: AEA2E00F6C52515A074CAB5B6ED3A968 Accuracy: -m0
Conclusion: CDDA 100%
Signature: DFF6C7A01FF692738B1C94261DC12EDB5B1E12C4

DR log

foobar2000 1.3.9 / Замер динамического диапазона (DR) 1.1.1
Дата отчёта: 2017-09-13 21:13:40
--------------------------------------------------------------------------------
Анализ: The Nighthawks / All You Gotta Do
--------------------------------------------------------------------------------
DR Пики RMS Продолжительность трека
--------------------------------------------------------------------------------
DR7 0.00 дБ -8.22 дБ 3:10 01-That's All You Gotta Do
DR8 -0.09 дБ -9.62 дБ 4:12 02-When I Go Away
DR8 -0.09 дБ -9.70 дБ 3:45 03-Baby, I Want To Be Loved
DR7 -0.09 дБ -9.36 дБ 3:07 04-Let's Burn Down The Cornfield
DR8 -0.09 дБ -8.84 дБ 3:03 05-Another Day
DR7 -0.09 дБ -8.76 дБ 2:54 06-VooDoo Doll
DR9 -0.10 дБ -9.63 дБ 2:54 07-Ninety Nine
DR8 -0.09 дБ -9.21 дБ 4:44 08-Three Times Your Fool
DR7 -0.09 дБ -8.25 дБ 3:53 09-Isn't That So
DR8 -0.10 дБ -9.82 дБ 3:07 10-Snake Drive
DR9 -0.09 дБ -10.56 дБ 3:13 11-Blues For Brother John
DR7 -0.09 дБ -9.43 дБ 4:07 12-Dirty Water
--------------------------------------------------------------------------------
Количество треков: 12
Реальные значения DR: DR8
Частота: 44100 Гц
Каналов: 2
Разрядность: 16
Битрейт: 868 кбит/с
Кодек: FLAC
================================================================================
Доп. информация

Состав

Mark Wenner - Harmonica
Paul Bell - Guitar
Johnny castle - Bass
Mark Stutso - Drums

If you like the topic, please click share to help develop our site.

To download the file disable ad blocking, and reload the page.

disable adblock How to disable ad blocking?

Download by magnet link 264 MB Download Torrent

Login using:

Similar topics



   
Current time is: 24-Mar 22:07 :: All times are UTC + 3