The Kinsey Report / Crossing Bridges Жанр: Blues Rock
Носитель: CD
Страна-производитель диска (релиза): US
Год издания: 1993
Издатель (лейбл): Pointblank
Номер по каталогу: V2-87004
Страна исполнителя (группы): US
Аудиокодек: FLAC (*.flac)
Тип рипа: tracks+.cue
Битрейт аудио: lossless
Продолжительность: 00:53:34
Источник (релизер): ArcticBlast
Наличие сканов в содержимом раздачи: нет
Треклист:
01. Too Early To Tell (3:08)
02. I Take What I Want (3:09)
03. She's Gone (4:38)
04. Midnight Drive (4:25)
05. Strange Things (2:44)
06. Release Yourself (3:49)
07. Women (5:18)
08. Chicken Heads (3:54)
09. One Too Many (3:53)
10. Key To Your Heart (3:59)
11. Love Is Real (3:37)
12. My Kind Of Woman (3:24)
13. Dancin' With The Beast (4:23)
14. I Take What I Want (Version 2) (3:13)

Лог создания рипа

X Lossless Decoder version 20161007 (149.3)
XLD extraction logfile from 2017-05-20 10:02:27 -0400
The Kinsey Report / Crossing Bridges
Used drive : HL-DT-ST DVD-RW GH41N (revision PQ05)
Media type : Pressed CD
Ripper mode : XLD Secure Ripper
Disable audio cache : OK for the drive with a cache less than 1375KiB
Make use of C2 pointers : NO
Read offset correction : 667
Max retry count : 100
Gap status : Analyzed, Appended (except HTOA)
TOC of the extracted CD
Track | Start | Length | Start sector | End sector
---------------------------------------------------------
1 | 00:00:00 | 03:08:35 | 0 | 14134
2 | 03:08:35 | 03:08:67 | 14135 | 28301
3 | 06:17:27 | 04:37:68 | 28302 | 49144
4 | 10:55:20 | 04:24:40 | 49145 | 68984
5 | 15:19:60 | 02:43:62 | 68985 | 81271
6 | 18:03:47 | 03:49:25 | 81272 | 98471
7 | 21:52:72 | 05:18:18 | 98472 | 122339
8 | 27:11:15 | 03:54:12 | 122340 | 139901
9 | 31:05:27 | 03:52:48 | 139902 | 157349
10 | 34:58:00 | 03:58:57 | 157350 | 175256
11 | 38:56:57 | 03:36:60 | 175257 | 191516
12 | 42:33:42 | 03:23:63 | 191517 | 206804
13 | 45:57:30 | 04:23:30 | 206805 | 226559
14 | 50:20:60 | 03:13:12 | 226560 | 241046
AccurateRip Summary (DiscID: 001b7b81-01272e65-b90c8d0e)
Track 01 : OK (v2, confidence 2/2)
Track 02 : OK (v2, confidence 4/4)
Track 03 : OK (v2, confidence 3/3)
Track 04 : OK (v2, confidence 4/4)
Track 05 : NG (total 3 submissions)
Track 06 : OK (v2, confidence 4/4)
Track 07 : OK (v2, confidence 4/4)
Track 08 : OK (v2, confidence 4/4)
Track 09 : OK (v2, confidence 4/4)
Track 10 : OK (v2, confidence 4/4)
Track 11 : OK (v2, confidence 4/4)
Track 12 : OK (v2, confidence 3/3)
Track 13 : OK (v2, confidence 3/3)
Track 14 : OK (v2, confidence 2/2)
->13 tracks accurately ripped, 1 track not
All Tracks
Album gain : -3.96 dB
Peak : 1.000000
Statistics
Read error : 0
Jitter error (maybe fixed) : 0
Retry sector count : 2
Damaged sector count : 0
Track 01
Filename : /Volumes/Data 2TB/XLD rips/The Kinsey Report - Crossing Bridges (Unknown Year) [FLAC]/01 - Too Early To Tell.flac
Pre-gap length : 00:02:00
Track gain : -1.74 dB
Peak : 0.965210
CRC32 hash (test run) : 22C2B4AE
CRC32 hash : 22C2B4AE
CRC32 hash (skip zero) : 1DB92D06
AccurateRip v1 signature : 866611B5
AccurateRip v2 signature : E6D51B26
->Accurately ripped (v2, confidence 2/2)
Statistics
Read error : 0
Jitter error (maybe fixed) : 0
Retry sector count : 0
Damaged sector count : 0
Track 02
Filename : /Volumes/Data 2TB/XLD rips/The Kinsey Report - Crossing Bridges (Unknown Year) [FLAC]/02 - I Take What I Want.flac
Pre-gap length : 00:00:18
Track gain : -4.41 dB
Peak : 0.850525
CRC32 hash (test run) : C7AE046A
CRC32 hash : C7AE046A
CRC32 hash (skip zero) : EFC7E4A9
AccurateRip v1 signature : 5FF43E4B
AccurateRip v2 signature : 1127A258
->Accurately ripped (v2, confidence 4/4)
Statistics
Read error : 0
Jitter error (maybe fixed) : 0
Retry sector count : 0
Damaged sector count : 0
Track 03
Filename : /Volumes/Data 2TB/XLD rips/The Kinsey Report - Crossing Bridges (Unknown Year) [FLAC]/03 - She's Gone.flac
Pre-gap length : 00:00:27
Track gain : -3.16 dB
Peak : 1.000000
CRC32 hash (test run) : 2FDD2C97
CRC32 hash : 2FDD2C97
CRC32 hash (skip zero) : FEB592EA
AccurateRip v1 signature : 87B8EED0
AccurateRip v2 signature : FF952A15
->Accurately ripped (v2, confidence 3/3)
Statistics
Read error : 0
Jitter error (maybe fixed) : 0
Retry sector count : 1
Damaged sector count : 0
Track 04
Filename : /Volumes/Data 2TB/XLD rips/The Kinsey Report - Crossing Bridges (Unknown Year) [FLAC]/04 - Midnight Drive.flac
Track gain : -2.35 dB
Peak : 0.946533
CRC32 hash (test run) : E565421A
CRC32 hash : E565421A
CRC32 hash (skip zero) : 00E54634
AccurateRip v1 signature : 8E8F49A3
AccurateRip v2 signature : FCBCB6F3
->Accurately ripped (v2, confidence 4/4)
Statistics
Read error : 0
Jitter error (maybe fixed) : 0
Retry sector count : 0
Damaged sector count : 0
Track 05
Filename : /Volumes/Data 2TB/XLD rips/The Kinsey Report - Crossing Bridges (Unknown Year) [FLAC]/05 - Strange Things.flac
Pre-gap length : 00:00:55
Track gain : -2.52 dB
Peak : 0.903473
CRC32 hash (test run) : 80891585
CRC32 hash : 80891585
CRC32 hash (skip zero) : BA3354CF
AccurateRip v1 signature : 66AFA246
AccurateRip v2 signature : C59D525B
->Rip may not be accurate (total 3 submissions).
Statistics
Read error : 0
Jitter error (maybe fixed) : 0
Retry sector count : 1
Damaged sector count : 0
Track 06
Filename : /Volumes/Data 2TB/XLD rips/The Kinsey Report - Crossing Bridges (Unknown Year) [FLAC]/06 - Release Yourself.flac
Pre-gap length : 00:00:35
Track gain : -3.66 dB
Peak : 0.977234
CRC32 hash (test run) : F6C3D980
CRC32 hash : F6C3D980
CRC32 hash (skip zero) : 78FB730F
AccurateRip v1 signature : 051C4829
AccurateRip v2 signature : 522EBA33
->Accurately ripped (v2, confidence 4/4)
Statistics
Read error : 0
Jitter error (maybe fixed) : 0
Retry sector count : 0
Damaged sector count : 0
Track 07
Filename : /Volumes/Data 2TB/XLD rips/The Kinsey Report - Crossing Bridges (Unknown Year) [FLAC]/07 - Women.flac
Pre-gap length : 00:00:27
Track gain : -2.11 dB
Peak : 0.966034
CRC32 hash (test run) : F130AECC
CRC32 hash : F130AECC
CRC32 hash (skip zero) : 42DB2A0F
AccurateRip v1 signature : 2CB30D40
AccurateRip v2 signature : E4CB1974
->Accurately ripped (v2, confidence 4/4)
Statistics
Read error : 0
Jitter error (maybe fixed) : 0
Retry sector count : 0
Damaged sector count : 0
Track 08
Filename : /Volumes/Data 2TB/XLD rips/The Kinsey Report - Crossing Bridges (Unknown Year) [FLAC]/08 - Chicken Heads.flac
Pre-gap length : 00:00:30
Track gain : -2.78 dB
Peak : 0.954987
CRC32 hash (test run) : B215593C
CRC32 hash : B215593C
CRC32 hash (skip zero) : 8A16B66A
AccurateRip v1 signature : 928A8310
AccurateRip v2 signature : 89382F33
->Accurately ripped (v2, confidence 4/4)
Statistics
Read error : 0
Jitter error (maybe fixed) : 0
Retry sector count : 0
Damaged sector count : 0
Track 09
Filename : /Volumes/Data 2TB/XLD rips/The Kinsey Report - Crossing Bridges (Unknown Year) [FLAC]/09 - One Too Many.flac
Track gain : -3.80 dB
Peak : 0.977234
CRC32 hash (test run) : 2DD0CEF2
CRC32 hash : 2DD0CEF2
CRC32 hash (skip zero) : 3141CDFB
AccurateRip v1 signature : 6BCA7430
AccurateRip v2 signature : 48C779D7
->Accurately ripped (v2, confidence 4/4)
Statistics
Read error : 0
Jitter error (maybe fixed) : 0
Retry sector count : 0
Damaged sector count : 0
Track 10
Filename : /Volumes/Data 2TB/XLD rips/The Kinsey Report - Crossing Bridges (Unknown Year) [FLAC]/10 - Key To Your Heart.flac
Pre-gap length : 00:01:05
Track gain : -2.62 dB
Peak : 0.966064
CRC32 hash (test run) : F59CCA40
CRC32 hash : F59CCA40
CRC32 hash (skip zero) : 4A5B3AAA
AccurateRip v1 signature : ADF645BC
AccurateRip v2 signature : 9AFC619C
->Accurately ripped (v2, confidence 4/4)
Statistics
Read error : 0
Jitter error (maybe fixed) : 0
Retry sector count : 0
Damaged sector count : 0
Track 11
Filename : /Volumes/Data 2TB/XLD rips/The Kinsey Report - Crossing Bridges (Unknown Year) [FLAC]/11 - Love Is Real.flac
Pre-gap length : 00:00:22
Track gain : -3.33 dB
Peak : 1.000000
CRC32 hash (test run) : 6615B1A8
CRC32 hash : 6615B1A8
CRC32 hash (skip zero) : 28F56498
AccurateRip v1 signature : AEE1263C
AccurateRip v2 signature : 139585E4
->Accurately ripped (v2, confidence 4/4)
Statistics
Read error : 0
Jitter error (maybe fixed) : 0
Retry sector count : 0
Damaged sector count : 0
Track 12
Filename : /Volumes/Data 2TB/XLD rips/The Kinsey Report - Crossing Bridges (Unknown Year) [FLAC]/12 - My Kind Of Woman.flac
Pre-gap length : 00:00:47
Track gain : -1.69 dB
Peak : 0.912018
CRC32 hash (test run) : 77A1712B
CRC32 hash : 77A1712B
CRC32 hash (skip zero) : 55ABC1ED
AccurateRip v1 signature : 5EF9B14E
AccurateRip v2 signature : 3B9DF905
->Accurately ripped (v2, confidence 3/3)
Statistics
Read error : 0
Jitter error (maybe fixed) : 0
Retry sector count : 0
Damaged sector count : 0
Track 13
Filename : /Volumes/Data 2TB/XLD rips/The Kinsey Report - Crossing Bridges (Unknown Year) [FLAC]/13 - Dancin' With The Beast.flac
Pre-gap length : 00:00:63
Track gain : -2.90 dB
Peak : 0.999969
CRC32 hash (test run) : 2514E852
CRC32 hash : 2514E852
CRC32 hash (skip zero) : E9A4864E
AccurateRip v1 signature : EC38CBCA
AccurateRip v2 signature : 8BEE089F
->Accurately ripped (v2, confidence 3/3)
Statistics
Read error : 0
Jitter error (maybe fixed) : 0
Retry sector count : 0
Damaged sector count : 0
Track 14
Filename : /Volumes/Data 2TB/XLD rips/The Kinsey Report - Crossing Bridges (Unknown Year) [FLAC]/14 - I Take What I Want (Version 2).flac
Pre-gap length : 00:00:13
Track gain : -7.29 dB
Peak : 0.841370
CRC32 hash (test run) : D9615074
CRC32 hash : D9615074
CRC32 hash (skip zero) : CA2B66A9
AccurateRip v1 signature : 691145C6
AccurateRip v2 signature : A60E5121
->Accurately ripped (v2, confidence 2/2)
Statistics
Read error : 0
Jitter error (maybe fixed) : 0
Retry sector count : 0
Damaged sector count : 0
No errors occurred
End of status report
-----BEGIN XLD SIGNATURE-----
nXgVvnrQL.n8kq_wu.YU87tN8TNkoKPvvckyDBSq1GNQfKoyatF5TxP38VPKdTlkzUJQfV18i2TkGkwrwRqm0P4APqJhZnLzlGwJFPK
-----END XLD SIGNATURE-----

Содержание индексной карты (.CUE)

TITLE "Crossing Bridges"
PERFORMER "The Kinsey Report"
REM DISCID B90C8D0E
REM REPLAYGAIN_ALBUM_GAIN -3.96 dB
REM REPLAYGAIN_ALBUM_PEAK 1.000000
FILE "01 - Too Early To Tell.flac" WAVE
TRACK 01 AUDIO
TITLE "Too Early To Tell"
REM REPLAYGAIN_TRACK_GAIN -1.74 dB
REM REPLAYGAIN_TRACK_PEAK 0.965210
INDEX 01 00:00:00
TRACK 02 AUDIO
TITLE "I Take What I Want"
REM REPLAYGAIN_TRACK_GAIN -4.41 dB
REM REPLAYGAIN_TRACK_PEAK 0.850525
INDEX 00 03:08:17
FILE "02 - I Take What I Want.flac" WAVE
INDEX 01 00:00:00
TRACK 03 AUDIO
TITLE "She's Gone"
REM REPLAYGAIN_TRACK_GAIN -3.16 dB
REM REPLAYGAIN_TRACK_PEAK 1.000000
INDEX 00 03:08:40
FILE "03 - She's Gone.flac" WAVE
INDEX 01 00:00:00
FILE "04 - Midnight Drive.flac" WAVE
TRACK 04 AUDIO
TITLE "Midnight Drive"
REM REPLAYGAIN_TRACK_GAIN -2.35 dB
REM REPLAYGAIN_TRACK_PEAK 0.946533
INDEX 01 00:00:00
TRACK 05 AUDIO
TITLE "Strange Things"
REM REPLAYGAIN_TRACK_GAIN -2.52 dB
REM REPLAYGAIN_TRACK_PEAK 0.903473
INDEX 00 04:23:60
FILE "05 - Strange Things.flac" WAVE
INDEX 01 00:00:00
TRACK 06 AUDIO
TITLE "Release Yourself"
REM REPLAYGAIN_TRACK_GAIN -3.66 dB
REM REPLAYGAIN_TRACK_PEAK 0.977234
INDEX 00 02:43:27
FILE "06 - Release Yourself.flac" WAVE
INDEX 01 00:00:00
TRACK 07 AUDIO
TITLE "Women"
REM REPLAYGAIN_TRACK_GAIN -2.11 dB
REM REPLAYGAIN_TRACK_PEAK 0.966034
INDEX 00 03:48:73
FILE "07 - Women.flac" WAVE
INDEX 01 00:00:00
TRACK 08 AUDIO
TITLE "Chicken Heads"
REM REPLAYGAIN_TRACK_GAIN -2.78 dB
REM REPLAYGAIN_TRACK_PEAK 0.954987
INDEX 00 05:17:63
FILE "08 - Chicken Heads.flac" WAVE
INDEX 01 00:00:00
FILE "09 - One Too Many.flac" WAVE
TRACK 09 AUDIO
TITLE "One Too Many"
REM REPLAYGAIN_TRACK_GAIN -3.80 dB
REM REPLAYGAIN_TRACK_PEAK 0.977234
INDEX 01 00:00:00
TRACK 10 AUDIO
TITLE "Key To Your Heart"
REM REPLAYGAIN_TRACK_GAIN -2.62 dB
REM REPLAYGAIN_TRACK_PEAK 0.966064
INDEX 00 03:51:43
FILE "10 - Key To Your Heart.flac" WAVE
INDEX 01 00:00:00
TRACK 11 AUDIO
TITLE "Love Is Real"
REM REPLAYGAIN_TRACK_GAIN -3.33 dB
REM REPLAYGAIN_TRACK_PEAK 1.000000
INDEX 00 03:58:35
FILE "11 - Love Is Real.flac" WAVE
INDEX 01 00:00:00
TRACK 12 AUDIO
TITLE "My Kind Of Woman"
REM REPLAYGAIN_TRACK_GAIN -1.69 dB
REM REPLAYGAIN_TRACK_PEAK 0.912018
INDEX 00 03:36:13
FILE "12 - My Kind Of Woman.flac" WAVE
INDEX 01 00:00:00
TRACK 13 AUDIO
TITLE "Dancin' With The Beast"
REM REPLAYGAIN_TRACK_GAIN -2.90 dB
REM REPLAYGAIN_TRACK_PEAK 0.999969
INDEX 00 03:23:00
FILE "13 - Dancin' With The Beast.flac" WAVE
INDEX 01 00:00:00
TRACK 14 AUDIO
TITLE "I Take What I Want (Version 2)"
REM REPLAYGAIN_TRACK_GAIN -7.29 dB
REM REPLAYGAIN_TRACK_PEAK 0.841370
INDEX 00 04:23:17
FILE "14 - I Take What I Want (Version 2).flac" WAVE
INDEX 01 00:00:00

Лог проверки качества

-----------------------
DON'T MODIFY THIS FILE
-----------------------
PERFORMER: auCDtect Task Manager, ver. 1.6.0 RC1 build 1.6.0.1
Copyright (c) 2008-2010 y-soft. All rights reserved
http://y-soft.org
ANALYZER: auCDtect: CD records authenticity detector, version 0.8.2
Copyright (c) 2004 Oleg Berngardt. All rights reserved.
Copyright (c) 2004 Alexander Djourik. All rights reserved.
FILE: 14 - I Take What I Want (Version 2).flac
Size: 22942728 Hash: 9E501D94BA4F10EF3481D402E2E12B64 Accuracy: -m0
Conclusion: CDDA 100%
Signature: AF42D4929DF4EE824932CE4BE9EFE92034569A60
FILE: 13 - Dancin' With The Beast.flac
Size: 28755195 Hash: C736EE368965C9DD18E80990AE579B1F Accuracy: -m0
Conclusion: CDDA 100%
Signature: 095269661441B50DFC04C3906399CB92152CF800
FILE: 12 - My Kind Of Woman.flac
Size: 22665900 Hash: FB1B577B01762316F8629BF674C56FD4 Accuracy: -m0
Conclusion: CDDA 100%
Signature: 30E4EFA2EA617F22C350EB16A489B7D9C500B1F5
FILE: 11 - Love Is Real.flac
Size: 24015323 Hash: FB34AA0F913F8E7539044C5AA59C8696 Accuracy: -m0
Conclusion: CDDA 100%
Signature: 7371C323942EE05A707B9645B01C8C33BA91E094
FILE: 10 - Key To Your Heart.flac
Size: 25259906 Hash: 9C5DE0CF092D17D69A68D4AD881331E4 Accuracy: -m0
Conclusion: CDDA 100%
Signature: 8D8AC5AB5A43DDDB23C219C4B4ACE4A684D7BEC7
FILE: 09 - One Too Many.flac
Size: 27473291 Hash: E3FC9B9DA62C106CABA2ED74321791E0 Accuracy: -m0
Conclusion: CDDA 85%
Signature: 5BB43120D81D5E97F12D3C44E864CBF592A60317
FILE: 08 - Chicken Heads.flac
Size: 25841789 Hash: 347826B317DDC5029DCE85DE1F22C4E7 Accuracy: -m0
Conclusion: CDDA 99%
Signature: 2FD11D588BAD2A2942E9A8B92D0DA11B1A4F659A
FILE: 07 - Women.flac
Size: 33585082 Hash: B3998BBE72BD89933E1D4081CDA14EFE Accuracy: -m0
Conclusion: CDDA 100%
Signature: 70FD025BBD1407D3400CAC560F03E8D083A86CAF
FILE: 06 - Release Yourself.flac
Size: 26820093 Hash: BE2F04EE09D0B3546D3455F35DE6CF72 Accuracy: -m0
Conclusion: CDDA 100%
Signature: BB61EB0F32820503175E931DCE259A42CD1222BA
FILE: 05 - Strange Things.flac
Size: 18089235 Hash: A04F3859763031A27225119166B2B561 Accuracy: -m0
Conclusion: CDDA 100%
Signature: DF8CDBA3CD5D20658F12B0209EC1C2EFA0E812F0
FILE: 04 - Midnight Drive.flac
Size: 30579465 Hash: 1F263A10DE1E763B4EAEAF8B888C93BF Accuracy: -m0
Conclusion: CDDA 100%
Signature: 60FBC820B6B0A18C589962B9329AFA60E80CA4EB
FILE: 03 - She's Gone.flac
Size: 29527087 Hash: 0A760135375744C9DB206452F41AA2F2 Accuracy: -m0
Conclusion: CDDA 100%
Signature: 18E8F8A6F40067C91E393B2E5E2170675906A54E
FILE: 02 - I Take What I Want.flac
Size: 22149539 Hash: 279FCDBC8FE180E5896C0803602D95D1 Accuracy: -m0
Conclusion: CDDA 100%
Signature: 70569F271EB961B2C0C3FF22BAF91A65B5981A28
FILE: 01 - Too Early To Tell.flac
Size: 21049883 Hash: F3F1789AA04D75E5C169B9F63F1AE211 Accuracy: -m0
Conclusion: CDDA 99%
Signature: 541D034E45ED708D82F46B0AE34AEB3BD5480D55
The Kinsey Report lossless

To download the file disable ad blocking, and reload the page.

disable adblock How to disable ad blocking?

Download by magnet link 343 MB Download Torrent

Login using:

Similar topics

(Blues / Rock) Janis Joplin Album-The very best of - 1995, MP3, 320 kbps
 108 MB   0 | 0   13-Jun-17 12:50   0


   
Current time is: 20-Jan 13:54 :: All times are UTC + 3