Russell Morris / Red Dirt - Red Heart Жанр: Blues, Rock
Носитель: CD
Страна-производитель диска (релиза): Australia
Год издания: 2015
Издатель (лейбл): Chugg Music
Номер по каталогу: CHG008
Страна исполнителя (группы): Australia
Аудиокодек: FLAC (*.flac)
Тип рипа: tracks+.cue
Битрейт аудио: lossless
Продолжительность: 00:48:10
Источник (релизер): Cozzo
Наличие сканов в содержимом раздачи: да
Треклист:
01. Cut You Loose (3:03)
02. I Go Around (3:59)
03. Bennelong (3:54)
04. Goanna Man (3:35)
05. Lonesome Road (2:31)
06. Alice (4:03)
07. Kadaitcha Man (4:49)
08. God Loves A Sinner (3:55)
09. Moondyne Joe (4:22)
10. Tiger Snake (3:48)
11. Ben Hall (4:16)
12. Pemulwuy (3:50)
13. Nullabour Sand (2:05)

Лог создания рипа

Exact Audio Copy V1.0 beta 4 from 7. December 2014
EAC extraction logfile from 27. January 2016, 13:16
Russell Morris / Red Dirt - Red Heart
Used drive : TSSTcorpCDDVDW SH-222AB Adapter: 1 ID: 0
Read mode : Secure
Utilize accurate stream : Yes
Defeat audio cache : Yes
Make use of C2 pointers : No
Read offset correction : 6
Overread into Lead-In and Lead-Out : No
Fill up missing offset samples with silence : Yes
Delete leading and trailing silent blocks : No
Null samples used in CRC calculations : Yes
Used interface : Native Win32 interface for Win NT & 2000
Gap handling : Appended to previous track
Used output format : User Defined Encoder
Selected bitrate : 1024 kBit/s
Quality : High
Add ID3 tag : No
Command line compressor : C:\Program Files\Exact Audio Copy\Flac\flac.exe
Additional command line options : -8 -V -T "ARTIST=%artist%" -T "TITLE=%title%" -T "ALBUM=%albumtitle%" -T "DATE=%year%" -T "TRACKNUMBER=%tracknr%" -T "GENRE=%genre%" -T "PERFORMER=%albuminterpret%" -T "COMPOSER=%composer%" %haslyrics%--tag-from-file=LYRICS="%lyricsfile%"%haslyrics% -T "ALBUMARTIST=%albumartist%" -T "DISCNUMBER=%cdnumber%" -T "TOTALDISCS=%totalcds%" -T "TOTALTRACKS=%numtracks%" -T "COMMENT=EAC V1.0 beta 4, Secure Mode, Test & Copy, AccurateRip, FLAC -8" %source% -o %dest%
TOC of the extracted CD
Track | Start | Length | Start sector | End sector
---------------------------------------------------------
1 | 0:00.00 | 3:03.19 | 0 | 13743
2 | 3:03.19 | 3:58.52 | 13744 | 31645
3 | 7:01.71 | 3:53.46 | 31646 | 49166
4 | 10:55.42 | 3:35.27 | 49167 | 65318
5 | 14:30.69 | 2:31.05 | 65319 | 76648
6 | 17:01.74 | 4:02.70 | 76649 | 94868
7 | 21:04.69 | 4:48.71 | 94869 | 116539
8 | 25:53.65 | 3:55.26 | 116540 | 134190
9 | 29:49.16 | 4:21.56 | 134191 | 153821
10 | 34:10.72 | 3:47.70 | 153822 | 170916
11 | 37:58.67 | 4:15.65 | 170917 | 190106
12 | 42:14.57 | 3:49.53 | 190107 | 207334
13 | 46:04.35 | 2:05.12 | 207335 | 216721
Track 1
Filename D:\Australian\Russell Morris - Red Dirt-Red Heart (2015) [FLAC]\01 - Cut You Loose.wav
Pre-gap length 0:00:02.00
Peak level 98.8 %
Extraction speed 3.2 X
Track quality 99.9 %
Test CRC D2E994DA
Copy CRC D2E994DA
Accurately ripped (confidence 1) [E1753D2C] (AR v2)
Copy OK
Track 2
Filename D:\Australian\Russell Morris - Red Dirt-Red Heart (2015) [FLAC]\02 - I Go Around.wav
Peak level 98.8 %
Extraction speed 3.9 X
Track quality 99.9 %
Test CRC 27F0A026
Copy CRC 27F0A026
Accurately ripped (confidence 1) [EE0ABBD9] (AR v2)
Copy OK
Track 3
Filename D:\Australian\Russell Morris - Red Dirt-Red Heart (2015) [FLAC]\03 - Bennelong.wav
Peak level 98.8 %
Extraction speed 5.2 X
Track quality 100.0 %
Test CRC 0F7915EA
Copy CRC 0F7915EA
Accurately ripped (confidence 1) [0EAE6F81] (AR v2)
Copy OK
Track 4
Filename D:\Australian\Russell Morris - Red Dirt-Red Heart (2015) [FLAC]\04 - Goanna Man.wav
Peak level 98.8 %
Extraction speed 5.5 X
Track quality 100.0 %
Test CRC B83C2FD4
Copy CRC B83C2FD4
Accurately ripped (confidence 1) [8BC53D2D] (AR v2)
Copy OK
Track 5
Filename D:\Australian\Russell Morris - Red Dirt-Red Heart (2015) [FLAC]\05 - Lonesome Road.wav
Peak level 98.8 %
Extraction speed 4.0 X
Track quality 99.9 %
Test CRC 16725346
Copy CRC 16725346
Accurately ripped (confidence 1) [57A36A9A] (AR v2)
Copy OK
Track 6
Filename D:\Australian\Russell Morris - Red Dirt-Red Heart (2015) [FLAC]\06 - Alice.wav
Peak level 98.8 %
Extraction speed 6.1 X
Track quality 100.0 %
Test CRC 728F4F39
Copy CRC 728F4F39
Accurately ripped (confidence 1) [0B827FE3] (AR v2)
Copy OK
Track 7
Filename D:\Australian\Russell Morris - Red Dirt-Red Heart (2015) [FLAC]\07 - Kadaitcha Man.wav
Peak level 98.8 %
Extraction speed 6.7 X
Track quality 100.0 %
Test CRC 04B9578C
Copy CRC 04B9578C
Accurately ripped (confidence 1) [262C8AA0] (AR v2)
Copy OK
Track 8
Filename D:\Australian\Russell Morris - Red Dirt-Red Heart (2015) [FLAC]\08 - God Loves A Sinner.wav
Peak level 98.8 %
Extraction speed 5.5 X
Track quality 99.9 %
Test CRC 72B0267A
Copy CRC 72B0267A
Accurately ripped (confidence 1) [1B069372] (AR v2)
Copy OK
Track 9
Filename D:\Australian\Russell Morris - Red Dirt-Red Heart (2015) [FLAC]\09 - Moondyne Joe.wav
Peak level 98.8 %
Extraction speed 7.3 X
Track quality 100.0 %
Test CRC BD32EE39
Copy CRC BD32EE39
Accurately ripped (confidence 1) [2991F9FB] (AR v2)
Copy OK
Track 10
Filename D:\Australian\Russell Morris - Red Dirt-Red Heart (2015) [FLAC]\10 - Tiger Snake.wav
Peak level 98.8 %
Extraction speed 7.4 X
Track quality 100.0 %
Test CRC C92F551F
Copy CRC C92F551F
Accurately ripped (confidence 1) [6B30570E] (AR v2)
Copy OK
Track 11
Filename D:\Australian\Russell Morris - Red Dirt-Red Heart (2015) [FLAC]\11 - Ben Hall.wav
Peak level 98.8 %
Extraction speed 7.8 X
Track quality 100.0 %
Test CRC 1E08C936
Copy CRC 1E08C936
Accurately ripped (confidence 1) [1F9FE40C] (AR v2)
Copy OK
Track 12
Filename D:\Australian\Russell Morris - Red Dirt-Red Heart (2015) [FLAC]\12 - Pemulwuy.wav
Peak level 98.8 %
Extraction speed 6.3 X
Track quality 99.9 %
Test CRC 961A9E4F
Copy CRC 961A9E4F
Accurately ripped (confidence 1) [36A4138A] (AR v2)
Copy OK
Track 13
Filename D:\Australian\Russell Morris - Red Dirt-Red Heart (2015) [FLAC]\13 - Nullabour Sand.wav
Peak level 99.7 %
Extraction speed 5.0 X
Track quality 99.9 %
Test CRC 5DE9F62C
Copy CRC 5DE9F62C
Accurately ripped (confidence 1) [133DB048] (AR v2)
Copy OK
All tracks accurately ripped
No errors occurred
End of status report
---- CUETools DB Plugin V2.1.4
[CTDB TOCID: 8kRKO9rd9g_HHmSJ3kuhAr6bMp4-] found
Submit result: 8kRKO9rd9g_HHmSJ3kuhAr6bMp4- has been confirmed
Track | CTDB Status
1 | (5/5) Accurately ripped
2 | (5/5) Accurately ripped
3 | (5/5) Accurately ripped
4 | (5/5) Accurately ripped
5 | (5/5) Accurately ripped
6 | (5/5) Accurately ripped
7 | (5/5) Accurately ripped
8 | (5/5) Accurately ripped
9 | (5/5) Accurately ripped
10 | (5/5) Accurately ripped
11 | (5/5) Accurately ripped
12 | (5/5) Accurately ripped
13 | (5/5) Accurately ripped
==== Log checksum 0968C02BBD4D2BA7598437D8B68ED9C87822BF66D3F914C5221DCBC97E3C1787 ====

Содержание индексной карты (.CUE)

REM GENRE Blues/Rock
REM DATE 2015
REM DISCID AD0B490D
REM COMMENT "ExactAudioCopy v1.0b4"
PERFORMER "Russell Morris"
TITLE "Red Dirt - Red Heart"
FILE "01 - Cut You Loose.wav" WAVE
TRACK 01 AUDIO
TITLE "Cut You Loose"
PERFORMER "Russell Morris"
INDEX 01 00:00:00
FILE "02 - I Go Around.wav" WAVE
TRACK 02 AUDIO
TITLE "I Go Around"
PERFORMER "Russell Morris"
INDEX 01 00:00:00
FILE "03 - Bennelong.wav" WAVE
TRACK 03 AUDIO
TITLE "Bennelong"
PERFORMER "Russell Morris"
INDEX 01 00:00:00
FILE "04 - Goanna Man.wav" WAVE
TRACK 04 AUDIO
TITLE "Goanna Man"
PERFORMER "Russell Morris"
INDEX 01 00:00:00
FILE "05 - Lonesome Road.wav" WAVE
TRACK 05 AUDIO
TITLE "Lonesome Road"
PERFORMER "Russell Morris"
INDEX 01 00:00:00
FILE "06 - Alice.wav" WAVE
TRACK 06 AUDIO
TITLE "Alice"
PERFORMER "Russell Morris"
INDEX 01 00:00:00
FILE "07 - Kadaitcha Man.wav" WAVE
TRACK 07 AUDIO
TITLE "Kadaitcha Man"
PERFORMER "Russell Morris"
INDEX 01 00:00:00
FILE "08 - God Loves A Sinner.wav" WAVE
TRACK 08 AUDIO
TITLE "God Loves A Sinner"
PERFORMER "Russell Morris"
INDEX 01 00:00:00
FILE "09 - Moondyne Joe.wav" WAVE
TRACK 09 AUDIO
TITLE "Moondyne Joe"
PERFORMER "Russell Morris"
INDEX 01 00:00:00
FILE "10 - Tiger Snake.wav" WAVE
TRACK 10 AUDIO
TITLE "Tiger Snake"
PERFORMER "Russell Morris"
INDEX 01 00:00:00
FILE "11 - Ben Hall.wav" WAVE
TRACK 11 AUDIO
TITLE "Ben Hall"
PERFORMER "Russell Morris"
INDEX 01 00:00:00
FILE "12 - Pemulwuy.wav" WAVE
TRACK 12 AUDIO
TITLE "Pemulwuy"
PERFORMER "Russell Morris"
INDEX 01 00:00:00
FILE "13 - Nullabour Sand.wav" WAVE
TRACK 13 AUDIO
TITLE "Nullabour Sand"
PERFORMER "Russell Morris"
INDEX 01 00:00:00

Лог проверки качества

-----------------------
DON'T MODIFY THIS FILE
-----------------------
PERFORMER: auCDtect Task Manager, ver. 1.6.0 RC1 build 1.6.0.1
Copyright (c) 2008-2010 y-soft. All rights reserved
http://y-soft.org
ANALYZER: auCDtect: CD records authenticity detector, version 0.8.2
Copyright (c) 2004 Oleg Berngardt. All rights reserved.
Copyright (c) 2004 Alexander Djourik. All rights reserved.
FILE: 13 - Nullabour Sand.flac
Size: 13074322 Hash: 45A437239113809BC9A25503BCDA6CBC Accuracy: -m0
Conclusion: CDDA 100%
Signature: 34E10CC44E2A626491999EAF57689EA410CE32A2
FILE: 12 - Pemulwuy.flac
Size: 26014552 Hash: A863E9440A5383BAC740E54B22E0D3E3 Accuracy: -m0
Conclusion: CDDA 100%
Signature: 1FB0734D289E1FD8F01614AD8EC94CA2913F77F1
FILE: 11 - Ben Hall.flac
Size: 30904495 Hash: ADCA9FB87B62CBCEED382EC2A88063AE Accuracy: -m0
Conclusion: CDDA 100%
Signature: 3723633B241DAD7760B6D6043F16A732C7AB5E7D
FILE: 10 - Tiger Snake.flac
Size: 23535743 Hash: E51268F61D2FAAE45F1537E23E06F003 Accuracy: -m0
Conclusion: CDDA 100%
Signature: 811078A5A979F3232778B9A90E034B7D6E75DA96
FILE: 09 - Moondyne Joe.flac
Size: 25807364 Hash: A9F426C7D4F560F7F97F363D43CA2AD9 Accuracy: -m0
Conclusion: CDDA 100%
Signature: E79906AAD1846C2E64219589C5CF740C72F626A4
FILE: 08 - God Loves A Sinner.flac
Size: 25540902 Hash: E8F4A5C6F43927E1F92C41541F79A3D1 Accuracy: -m0
Conclusion: CDDA 100%
Signature: 99E9043193E31929E7EC41CC0888B5125A87A167
FILE: 07 - Kadaitcha Man.flac
Size: 32047217 Hash: 0E7A6E25330223BCAFBE01F9E3A5C34E Accuracy: -m0
Conclusion: CDDA 100%
Signature: 0865F5039101C7416AE613EE76CA2DB26A75BBBB
FILE: 06 - Alice.flac
Size: 25963702 Hash: 8C3576E0AD5834C1F7BAD5955A3C0D1E Accuracy: -m0
Conclusion: CDDA 100%
Signature: 2E3D0564C34D673F3CCE361456991FCAE52E5908
FILE: 05 - Lonesome Road.flac
Size: 18151457 Hash: BF1875553FC712B137783118882899A3 Accuracy: -m0
Conclusion: CDDA 100%
Signature: ECA6C2240323EAE4EE11F9A64F161E1E3CDDFBAA
FILE: 04 - Goanna Man.flac
Size: 24219576 Hash: E625E060127A14AE79BF989BA3B75F52 Accuracy: -m0
Conclusion: CDDA 100%
Signature: 2BABB05C49222FA1010150FCAE924CD0253E4101
FILE: 03 - Bennelong.flac
Size: 25007166 Hash: E8F5B003A625E959BAB06528A7246B2E Accuracy: -m0
Conclusion: CDDA 100%
Signature: F136D94B54773B4B465968F4939BD5259526B311
FILE: 02 - I Go Around.flac
Size: 27539631 Hash: 1A66EB3B1731767200731CE39B59C5BB Accuracy: -m0
Conclusion: CDDA 100%
Signature: 1F917A52BC765C1693AC382EF3F6E7046FC904EC
FILE: 01 - Cut You Loose.flac
Size: 21440197 Hash: 99E6935DAAC84F6D076B50B7C2DACF52 Accuracy: -m0
Conclusion: CDDA 100%
Signature: B1199544B091FB82D80AF9D76DEC70A46336C90D

Об исполнителе (группе)

http://en.wikipedia.org/wiki/Russell_Morris
https://www.amazon.com/Red-Dirt-Heart-Russell-Morris/dp/B072LQPL7P/ref=sr_1_1?s=d...d+Dirt+Red+Heart
More information: https://www.discogs.com/Russell-Morris-Red-Dirt-Red-Heart/release/8773974
Label/Cat#: Chugg Music - CHG008 Country: Australia Year: 2015 Genre: Blues, Folk, World, Country
Russell Morris lossless

If you like the topic, please click share to help develop our site.

To download the file disable ad blocking, and reload the page.

disable adblock How to disable ad blocking?

Download by magnet link 306 MB Download Torrent

Login using:

Similar topics



   
Current time is: 20-Jun 13:01 :: All times are UTC + 3