Day Shift / Imaginary Menagerie
Жанр: Heavy Progressive
Носитель: CD
Страна-производитель диска (релиза): Self Released
Год издания: 2005
Номер по каталогу: CD023
Страна исполнителя (группы): United Kingdom
Аудиокодек: FLAC (*.flac)
Тип рипа: image+.cue
Битрейт аудио: lossless
Продолжительность: 00:42:10
Источник (релизер): собственный рип
Наличие сканов в содержимом раздачи: Booklet Front Open + Back 300 dpi
Треклист:
1. The Clothes Horse (6:40)
2. The Happy Elephant (6:11)
3. The Alternative Magpie (8:05)
4. The Abstracted Sloth (7:08)
5. The Unwashed Platypus (14:06)

Лог создания рипа

X Lossless Decoder version 20161007 (149.3)
XLD extraction logfile from 2017-09-14 16:15:23 +0200
Day Shift / Imaginary Menagerie
Used drive : HL-DT-ST DVDRW GX40N (revision RQ00)
Media type : Pressed CD
Ripper mode : XLD Secure Ripper
Disable audio cache : OK for the drive with a cache less than 1375KiB
Make use of C2 pointers : NO
Read offset correction : 6
Max retry count : 100
Gap status : Analyzed, Appended
TOC of the extracted CD
Track | Start | Length | Start sector | End sector
---------------------------------------------------------
1 | 00:00:00 | 06:40:00 | 0 | 29999
2 | 06:40:00 | 06:11:36 | 30000 | 57860
3 | 12:51:36 | 08:05:05 | 57861 | 94240
4 | 20:56:41 | 07:08:11 | 94241 | 126351
5 | 28:04:52 | 14:06:06 | 126352 | 189807
List of alternate offset correction values
# | Absolute | Relative | Confidence
------------------------------------------
1 | 1182 | 1176 | 3
AccurateRip Summary (DiscID: 00079a56-00245564-3e09e205)
Track 01 : OK (v1, confidence 3/3, with different offset)
Track 02 : OK (v1, confidence 3/3, with different offset)
Track 03 : OK (v1, confidence 3/3, with different offset)
Track 04 : OK (v1, confidence 3/3, with different offset)
Track 05 : OK (v1, confidence 3/3, with different offset)
->All tracks accurately ripped.
All Tracks
Filename : /Users/likewendy/Desktop/EXTRACTION XLD/01 Day Shift - Imaginary Menagerie.flac
Album gain : -7.70 dB
Peak : 0.999969
CRC32 hash (test run) : 13614102
CRC32 hash : 13614102
CRC32 hash (skip zero) : CC55AD8B
Statistics
Read error : 0
Jitter error (maybe fixed) : 0
Retry sector count : 0
Damaged sector count : 0
Track 01
Pre-gap length : 00:02:00
Track gain : -7.62 dB
Peak : 0.999969
CRC32 hash (test run) : 5EB4A2D2
CRC32 hash : 5EB4A2D2
CRC32 hash (skip zero) : F9ECA842
AccurateRip v1 signature : CC8FC026 (1BD825D6 w/correction)
AccurateRip v2 signature : 38ACDCA8
->Accurately ripped with different offset (v1, confidence 3/3, offset +1176)
Statistics
Read error : 0
Jitter error (maybe fixed) : 0
Retry sector count : 0
Damaged sector count : 0
Track 02
Track gain : -6.64 dB
Peak : 0.999969
CRC32 hash (test run) : 9D282872
CRC32 hash : 9D282872
CRC32 hash (skip zero) : C06A6BA9
AccurateRip v1 signature : 6C429EF4 (7FAA26C3 w/correction)
AccurateRip v2 signature : 34A7C79D
->Accurately ripped with different offset (v1, confidence 3/3, offset +1176)
Statistics
Read error : 0
Jitter error (maybe fixed) : 0
Retry sector count : 0
Damaged sector count : 0
Track 03
Track gain : -5.23 dB
Peak : 0.999969
CRC32 hash (test run) : 0AD268B0
CRC32 hash : 0AD268B0
CRC32 hash (skip zero) : 4364ACE3
AccurateRip v1 signature : CD0D940B (4CCD4D5B w/correction)
AccurateRip v2 signature : B5A63A98
->Accurately ripped with different offset (v1, confidence 3/3, offset +1176)
Statistics
Read error : 0
Jitter error (maybe fixed) : 0
Retry sector count : 0
Damaged sector count : 0
Track 04
Track gain : -8.22 dB
Peak : 0.999969
CRC32 hash (test run) : E6232ADF
CRC32 hash : E6232ADF
CRC32 hash (skip zero) : 1FDA7167
AccurateRip v1 signature : 6549F2A2 (657B31A7 w/correction)
AccurateRip v2 signature : 715806D6
->Accurately ripped with different offset (v1, confidence 3/3, offset +1176)
Statistics
Read error : 0
Jitter error (maybe fixed) : 0
Retry sector count : 0
Damaged sector count : 0
Track 05
Track gain : -8.03 dB
Peak : 0.999969
CRC32 hash (test run) : 244394B0
CRC32 hash : 244394B0
CRC32 hash (skip zero) : AE66F018
AccurateRip v1 signature : AA3DA8F5 (ADD30EAD w/correction)
AccurateRip v2 signature : 73DD70AF
->Accurately ripped with different offset (v1, confidence 3/3, offset +1176)
Statistics
Read error : 0
Jitter error (maybe fixed) : 0
Retry sector count : 0
Damaged sector count : 0
No errors occurred
End of status report

Содержание индексной карты (.CUE)

TITLE "Imaginary Menagerie"
PERFORMER "Day Shift"
CATALOG 0101000009000
REM GENRE "Rock"
REM DATE "2005"
REM DISCID 3E09E205
REM REPLAYGAIN_ALBUM_GAIN -7.70 dB
REM REPLAYGAIN_ALBUM_PEAK 0.999969
FILE "01 Day Shift - Imaginary Menagerie.flac" WAVE
TRACK 01 AUDIO
TITLE "The Clothes Horse"
REM REPLAYGAIN_TRACK_GAIN -7.62 dB
REM REPLAYGAIN_TRACK_PEAK 0.999969
INDEX 01 00:00:00
TRACK 02 AUDIO
TITLE "The Happy Elephant"
REM REPLAYGAIN_TRACK_GAIN -6.64 dB
REM REPLAYGAIN_TRACK_PEAK 0.999969
INDEX 01 06:40:00
TRACK 03 AUDIO
TITLE "The Alternative Magpie"
REM REPLAYGAIN_TRACK_GAIN -5.23 dB
REM REPLAYGAIN_TRACK_PEAK 0.999969
INDEX 01 12:51:36
TRACK 04 AUDIO
TITLE "The Abstracted Sloth"
REM REPLAYGAIN_TRACK_GAIN -8.22 dB
REM REPLAYGAIN_TRACK_PEAK 0.999969
INDEX 01 20:56:41
TRACK 05 AUDIO
TITLE "The Unwashed Platypus"
REM REPLAYGAIN_TRACK_GAIN -8.03 dB
REM REPLAYGAIN_TRACK_PEAK 0.999969
INDEX 01 28:04:52

обзор

Day Shift are from the south of England, and though they only formed in 2004 they've released a strong debut album that features a tight quintet that play a space, psych and progressive influenced brand of song oriented hard rock. The band consists of Bob Leek on vocals & synths, Nick Neere on guitar, Jason Tilbrook on bass, Archie on drums and Henry Crud on theremin (wasn't Henry Crud a Goon Show character?). I see on their links page that Archie also drums for Blue Drift and The Morrigan, both prog rock bands we've reviewed in the past.
The CD opens with "The Clothes Horse", a tight and heavy hard rock number with psychedelic and prog rock influences, a solid melodic sense, and nicely embellished with bubbling space rock synths. A strong opening track. "The Happy Elephant" continues down a similar road, but this is a really hot track that brings to mind the last few Porcupine Tree albums, but with the spacey influences that Mr Wilson seems to have dispensed with. A killer tune that beautifully incorporates space rock and psychedelia into a song oriented hard rock context. "The Alternative Magpie" and "The Abstracted Sloth" are more strong songs with an excellent blend of hard rock and psychedelia, the later colored by Ozric Tentacles styled keyboards and some killer soaring spacey guitar licks.
"The Unwashed Platypus" is the closing track and starts off very mellow and drifting, and reminds me a lot of earlier Porcupine Tree. It builds up slowly, the volume and intensity level building while retaining a floating quality. Then a few minutes into the song Nick takes off on an out of this world guitar solo that recalls the most tasteful of Dave Gilmour moments. The band soon starts to rock out, only to recede and transition to a spaced out, flowing synth segment that's like a cross between the Ozrics and Harvey Bainbridge. And at 14 minutes these guys really take off and jam on what is their most overtly space rock track of the set. Outstanding!!
In summary, Imaginary Menagerie is a potent set, with well written songs and driven by a knockout punch guitar style. (Aural Innovations)

If you like the topic, please click share to help develop our site.

To download the file disable ad blocking, and reload the page.

disable adblock How to disable ad blocking?

Download by magnet link 292 MB Download Torrent

Login using:

Similar topics

(Progressive Heavy Metal) Sangreal - Sangreal - 2019, MP3, 320 kbps
 97 MB   0 | 0   27-May-19 00:05   5


   
Current time is: 20-Jun 11:59 :: All times are UTC + 3