-Motorpsycho / The Tower- -
Жанр: Alternative Rock / Psychedelic Rock
Носитель: WEB
Год издания: 2017
Страна исполнителя (группы): Norway
Аудиокодек: FLAC (*.flac)
Тип рипа: tracks
Битрейт аудио: lossless
Продолжительность: 1:24:52
Источник (релизер): WEB
Наличие сканов в содержимом раздачи: нет 01. The Tower (8:42)
02. Bartok of the Universe (6:07)
03. A.S.F.E. (6:55)
04. Intrepid Explorer (9:51)
05. Stardust (3:35)
06. In Every Dream Home (There's a Dream of Something Else) (8:23)
07. The Maypole (3:39)
08. A Pacific Sonata (15:39)
09. The Cuckoo (7:20)
10. Ship of Fools (14:42)

Лог проверки качества

-----------------------
DON'T MODIFY THIS FILE
-----------------------
PERFORMER: auCDtect Task Manager, ver. 1.6.0 RC1 build 1.6.0.1
Copyright (c) 2008-2010 y-soft. All rights reserved
http://y-soft.org
ANALYZER: auCDtect: CD records authenticity detector, version 0.8.2
Copyright (c) 2004 Oleg Berngardt. All rights reserved.
Copyright (c) 2004 Alexander Djourik. All rights reserved.
FILE: 10. Ship of Fools.flac
Size: 91259672 Hash: 5098F08C636EABE7236D3855D6C7444E Accuracy: -m0
Conclusion: CDDA 99%
Signature: 61B335FDC0DD789BC59AE86E4162777A56EBD012
FILE: 09. The Cuckoo.flac
Size: 46615320 Hash: 4C513D5DA582F6B75DA5ACA57D7126BE Accuracy: -m0
Conclusion: CDDA 100%
Signature: 2E4B0ACAFB5A5C90B2B7F12FE290E84A9CA8F643
FILE: 08. A Pacific Sonata.flac
Size: 87554890 Hash: 63D0C69AA90C6FE66753C9F706C3BB55 Accuracy: -m0
Conclusion: CDDA 100%
Signature: BFFC33A7F2C43C779BB176D079130D78C95BA6AA
FILE: 07. The Maypole.flac
Size: 25909056 Hash: 871396CC9742F93FDE161A0C2BD7D946 Accuracy: -m0
Conclusion: CDDA 100%
Signature: 4D91690C59EEBF22FBFCAF1D721DC2BE37B500B5
FILE: 06. In Every Dream Home (There's a Dream of Something Else).flac
Size: 54243721 Hash: 016EC931B9EB706EBD0146A98A9A15B6 Accuracy: -m0
Conclusion: CDDA 100%
Signature: C5DA83BA5D6070B0B5779853C0DC929CC16E70C8
FILE: 05. Stardust.flac
Size: 20045994 Hash: AAEA11DFA188FC94EF8337A392ABAC2F Accuracy: -m0
Conclusion: CDDA 100%
Signature: AD0546215DD9C0217C482B65D491B17439061A69
FILE: 04. Intrepid Explorer.flac
Size: 60662924 Hash: D7228E725F0A955DF809EC8642733737 Accuracy: -m0
Conclusion: CDDA 100%
Signature: B957EA1A5082D8361159EBA8E354DC4004E83234
FILE: 03. A.S.F.E..flac
Size: 44079561 Hash: 2709E7B06DD9CC4667277BA0270227ED Accuracy: -m0
Conclusion: CDDA 100%
Signature: 34A6D592257852CD52036C2CABB73523A3169B2A
FILE: 02. Bartok of the Universe.flac
Size: 40688961 Hash: D4D9C841591180E43FCE4096F2943D74 Accuracy: -m0
Conclusion: CDDA 100%
Signature: 2FDC604513A9E0B35E2F7BF1B15F9BC1C4F160FD
FILE: 01. The Tower.flac
Size: 50674172 Hash: 5BBCF05F974C3F20AC49AB5C9E88F689 Accuracy: -m0
Conclusion: CDDA 100%
Signature: 8D7149106D2E2BFB9F521076D8A2268AE58FBE51

Лог DRM

foobar2000 1.3.9 / Dynamic Range Meter 1.1.1
log date: 2017-09-16 10:50:42
--------------------------------------------------------------------------------
Analyzed: Motorpsycho / The Tower
--------------------------------------------------------------------------------
DR Peak RMS Duration Track
--------------------------------------------------------------------------------
DR11 -0.52 dB -14.13 dB 8:42 01-The Tower
DR11 -0.52 dB -11.90 dB 6:07 02-Bartok of the Universe
DR10 -0.50 dB -11.76 dB 6:55 03-A.S.F.E.
DR10 -0.52 dB -13.66 dB 9:51 04-Intrepid Explorer
DR11 -4.72 dB -20.01 dB 3:35 05-Stardust
DR11 -0.52 dB -12.68 dB 8:23 06-In Every Dream Home (There's a Dream of Something Else)
DR10 -1.40 dB -13.07 dB 3:39 07-The Maypole
DR12 -0.51 dB -15.27 dB 15:39 08-A Pacific Sonata
DR11 -0.50 dB -13.58 dB 7:20 09-The Cuckoo
DR10 -0.52 dB -13.00 dB 14:42 10-Ship of Fools
--------------------------------------------------------------------------------
Number of tracks: 10
Official DR value: DR11
Samplerate: 44100 Hz
Channels: 2
Bits per sample: 16
Bitrate: 826 kbps
Codec: FLAC
================================================================================
--

Состав

- Bent Sæther / lead vocals, bass, guitars, keyboards
- Hans Magnus "Snah" Ryan / lead guitars, vocals, keyboards, mandolin, violin, bass
- Tomas Järmyr / drums, vocals

If you like the topic, please click share to help develop our site.

To download the file disable ad blocking, and reload the page.

disable adblock How to disable ad blocking?

Download by magnet link 498 MB Download Torrent

Login using:

Similar topics

(Alternative | Hard Rock) Puzzle - Lifetime - 2019, MP3, 320 kbps
 100 MB   0 | 0   Yesterday 11:55   0


   
Current time is: 17-Jun 02:01 :: All times are UTC + 3