Satyricon / Nemesis Divina (Japan)(Reissue 2016)
Жанр: Black Metal
Носитель: CD
Страна-производитель диска (релиза): Япония
Год издания: 1996
Издатель (лейбл): Victor Entertainment
Номер по каталогу: MICP-11279
Страна исполнителя (группы): Норвегия
Аудиокодек: FLAC (*.flac)
Тип рипа: image+.cue
Битрейт аудио: lossless
Продолжительность: 41:50
Источник (релизер): Собственный фирменный диск
Наличие сканов в содержимом раздачи: да
Треклист:
1. The Dawn of a New Age 07:27
2. Forhekset 04:32
3. Mother North 06:25
4. Du som hater Gud 04:22
5. Immortality Passion 07:20
6. Nemesis Divina 06:55
7. Transcendental Requiem of Slaves 04:49

Лог создания рипа

Exact Audio Copy V1.0 beta 3 from 29. August 2011
EAC extraction logfile from 15. September 2017, 22:03
Satyricon / Nemesis Divina (Reissue 2016)(Japan)
Used drive : Optiarc DVD RW AD-7260S Adapter: 1 ID: 1
Read mode : Secure
Utilize accurate stream : Yes
Defeat audio cache : Yes
Make use of C2 pointers : No
Read offset correction : 48
Overread into Lead-In and Lead-Out : No
Fill up missing offset samples with silence : Yes
Delete leading and trailing silent blocks : No
Null samples used in CRC calculations : Yes
Used interface : Native Win32 interface for Win NT & 2000
Used output format : Internal WAV Routines
Sample format : 44.100 Hz; 16 Bit; Stereo
TOC of the extracted CD
Track | Start | Length | Start sector | End sector
---------------------------------------------------------
1 | 0:00.00 | 7:27.59 | 0 | 33583
2 | 7:27.59 | 4:31.63 | 33584 | 53971
3 | 11:59.47 | 6:25.31 | 53972 | 82877
4 | 18:25.03 | 4:21.22 | 82878 | 102474
5 | 22:46.25 | 7:20.29 | 102475 | 135503
6 | 30:06.54 | 6:54.54 | 135504 | 166607
7 | 37:01.33 | 4:48.58 | 166608 | 188265
Range status and errors
Selected range
Filename C:\Мои документы\Satyricon - 1996 - Nemesis Divina (Reissue 2016)(Japan).wav
Peak level 100.0 %
Extraction speed 3.6 X
Range quality 100.0 %
Test CRC 5E13D462
Copy CRC 5E13D462
Copy OK
No errors occurred
AccurateRip summary
Track 1 cannot be verified as accurate (confidence 12) [225F9F5B], AccurateRip returned [8F6539E9] (AR v2)
Track 2 cannot be verified as accurate (confidence 12) [B2A72058], AccurateRip returned [52E4F98D] (AR v2)
Track 3 cannot be verified as accurate (confidence 12) [8990FE28], AccurateRip returned [4D25F52C] (AR v2)
Track 4 cannot be verified as accurate (confidence 12) [0D492D99], AccurateRip returned [A0FF94EB] (AR v2)
Track 5 cannot be verified as accurate (confidence 12) [F1CDAE3A], AccurateRip returned [BE31FDF0] (AR v2)
Track 6 cannot be verified as accurate (confidence 12) [99EAAD63], AccurateRip returned [48DD01AB] (AR v2)
Track 7 cannot be verified as accurate (confidence 12) [D41C37E9], AccurateRip returned [FFB26827] (AR v2)
No tracks could be verified as accurate
You may have a different pressing from the one(s) in the database
End of status report
---- CUETools DB Plugin V2.1.4
[CTDB TOCID: W1ZNJRXINO38uuBkPsL3Rqu.d74-] found
Submit result: W1ZNJRXINO38uuBkPsL3Rqu.d74- has been confirmed
Track | CTDB Status
1 | (45/45) Accurately ripped
2 | (45/45) Accurately ripped
3 | (45/45) Accurately ripped
4 | (45/45) Accurately ripped
5 | (45/45) Accurately ripped
6 | (45/45) Accurately ripped
7 | (45/45) Accurately ripped
==== Log checksum 4608298076800D71516890E56C2F337F7B12A93FFC354165D6CB9F36062BDF1A ====

Скриншот спектра частот

Remastered

To download the file disable ad blocking, and reload the page.

disable adblock How to disable ad blocking?

Download by magnet link 550 MB Download Torrent

Login using:

Similar topics



   
Current time is: 19-Jan 19:49 :: All times are UTC + 3