Жанр: Doom/Death Metal (early), Depressive Rock/Metal (later)
Страна исполнителя (группы): Sweden
Носитель: CD
Год издания: 1993 - 2017
Наличие сканов в содержимом раздачи: да
( Dead End Kings (Ltd. Edition);The Fall Of Hearts;The Great Cold Distance;Sanctitude - нет )

1993 - Dance Of December Souls ; 00:53:34

Страна-производитель диска (релиза): Sweden
Издатель (лейбл): No Fashion Records
Номер по каталогу: NFR 005
Аудиокодек: FLAC (*.flac)
Тип рипа: image+.cue
Битрейт аудио: lossless
Источник (релизер): darkbrides ( спасибо )
Треклист:
01. Seven Dreaming Souls (Intro) (00:45)
02. Gateways of Bereavement (08:15)
03. In Silence Enshrined (06:30)
04. Without God (06:51)
05. Elohim Meth (01:42)
06. Velvet Thorns (of Drynwhyl) (13:56)
07. Tomb of Insomnia (13:09)
08. Dancing December (02:20)

Лог создания рипа

Exact Audio Copy V0.99 prebeta 3 from 28. July 2007
Отчёт EAC об извлечении, выполненном 15. октября 2008, 20:54
Katatonia / Dance Of December Souls
Дисковод: ASUS DRW-1612BL Adapter: 0 ID: 0
Режим чтения : Достоверность
Использование точного потока : Да
Отключение кэша аудио : Да
Использование указателей C2 : Нет
Коррекция смещения при чтении : 6
Способность читать области Lead-in и Lead-out : Нет
Заполнение пропущенных сэмплов тишиной : Да
Удаление блоков с тишиной в начале и конце : Нет
При вычислениях CRC использовались нулевые сэмплы : Да
Интерфейс : Установленный внешний ASPI-интерфейс
Выходной формат : Пользовательский кодировщик
Выбранный битрейт : 768 kBit/s
Качество : Высокий
Добавление ID3-тэга : Нет
Утилита сжатия : C:\Program Files\Exact Audio Copy\FLAC\FLAC.EXE
Дополнительные параметры : -6 -V -T "ARTIST=%a" -T "TITLE=%t" -T "ALBUM=%g" -T "DATE=%y" -T "TRACKNUMBER=%n" -T "GENRE=%m" -T "COMMENT=%e" %s -o %d
TOC извлечённого CD
Трек | Старт | Длительность | Начальный сектор | Конечный сектор
---------------------------------------------------------------------
1 | 0:00.00 | 0:45.63 | 0 | 3437
2 | 0:45.63 | 8:15.50 | 3438 | 40612
3 | 9:01.38 | 6:30.65 | 40613 | 69927
4 | 15:32.28 | 6:51.57 | 69928 | 100809
5 | 22:24.10 | 1:42.45 | 100810 | 108504
6 | 24:06.55 | 13:56.40 | 108505 | 171244
7 | 38:03.20 | 13:09.70 | 171245 | 230489
8 | 51:13.15 | 2:20.40 | 230490 | 241029
Характеристики диапазона извлечения и сообщения об ошибках
Выбранный диапазон
Имя файла F:\My Doom\Katatonia - Dance Of December Souls.wav
Пиковый уровень 97.7 %
Качество диапазона 99.9 %
CRC копии DEDBACB9
Копирование... OK
Ошибок не произошло
AccurateRip: сводка
Трек 1 точное извлечение (доверие 3) [F3E17A4E]
Трек 2 точное извлечение (доверие 3) [AB6CD926]
Трек 3 точное извлечение (доверие 3) [238EC143]
Трек 4 точное извлечение (доверие 3) [6642BBBD]
Трек 5 точное извлечение (доверие 3) [0819806F]
Трек 6 точное извлечение (доверие 3) [3F3E3C05]
Трек 7 точное извлечение (доверие 3) [3E63173F]
Трек 8 точное извлечение (доверие 3) [78589C75]
Все треки извлечены точно
Конец отчёта

1993 - Dance Of December Souls (Remastered-2007) ; 01:10:56

Страна-производитель диска (релиза): UK
Издатель (лейбл): Peaceville Records
Номер по каталогу: CDVILED175
Аудиокодек: FLAC (*.flac)
Тип рипа: image+.cue
Битрейт аудио: lossless
Источник (релизер): inotuh ( спасибо )
Треклист:
01. Seven Dreaming Souls 00:46
02. Gateways of Bereavement 08:15
03. In Silence Enshrined 06:32
04. Without God 06:51
05. Elohim Meth 01:42
06. Velvet Thorns (of Drynwhyl) 13:57
07. Tomb of Insomnia 13:09
08. Dancing December 02:20
09. Midwinter Gates (Prologue)* 00:45
10. Without God* 06:54
11. Palace of Frost* 03:42
12. The Northern Silence* 04:02
13. Crimson Tears (Epilogue)* 01:56

Лог создания рипа

Exact Audio Copy V1.0 beta 3 from 29. August 2011
EAC extraction logfile from 23. September 2014, 22:43
Katatonia / Dance Of December Souls [CDVILED175, Remastered 2007]
Used drive : TSSTcorpCDDVDW SH-222BB Adapter: 1 ID: 0
Read mode : Secure
Utilize accurate stream : Yes
Defeat audio cache : Yes
Make use of C2 pointers : No
Read offset correction : 6
Overread into Lead-In and Lead-Out : No
Fill up missing offset samples with silence : Yes
Delete leading and trailing silent blocks : No
Null samples used in CRC calculations : Yes
Used interface : Native Win32 interface for Win NT & 2000
Used output format : User Defined Encoder
Selected bitrate : 1024 kBit/s
Quality : High
Add ID3 tag : No
Command line compressor : C:\Program Files\Exact Audio Copy\FLAC\FLAC.EXE
Additional command line options : -V -8 -T "Date=%year%" -T "Genre=%genre%" %source%
TOC of the extracted CD
Track | Start | Length | Start sector | End sector
---------------------------------------------------------
1 | 0:00.00 | 0:46.02 | 0 | 3451
2 | 0:46.02 | 8:15.57 | 3452 | 40633
3 | 9:01.59 | 6:32.02 | 40634 | 70035
4 | 15:33.61 | 6:52.00 | 70036 | 100935
5 | 22:25.61 | 1:42.24 | 100936 | 108609
6 | 24:08.10 | 13:57.45 | 108610 | 171429
7 | 38:05.55 | 13:09.64 | 171430 | 230668
8 | 51:15.44 | 2:20.10 | 230669 | 241178
9 | 53:35.54 | 0:45.06 | 241179 | 244559
10 | 54:20.60 | 6:54.32 | 244560 | 275641
11 | 61:15.17 | 3:42.02 | 275642 | 292293
12 | 64:57.19 | 4:02.35 | 292294 | 310478
13 | 68:59.54 | 1:56.40 | 310479 | 319218
Range status and errors
Selected range
Filename C:\Users\inotuh\Desktop\Katatonia - Dance Of December Souls [CDVILED175, Remastered 2007].wav
Peak level 98.8 %
Extraction speed 7.6 X
Range quality 99.9 %
Test CRC 562C3812
Copy CRC 562C3812
Copy OK
No errors occurred
AccurateRip summary
Track 1 accurately ripped (confidence 11) [2F787C72] (AR v2)
Track 2 accurately ripped (confidence 11) [5164C480] (AR v2)
Track 3 accurately ripped (confidence 11) [3B9909EF] (AR v2)
Track 4 accurately ripped (confidence 11) [B8F2A742] (AR v2)
Track 5 accurately ripped (confidence 11) [EF320526] (AR v2)
Track 6 accurately ripped (confidence 11) [CBC84C23] (AR v2)
Track 7 accurately ripped (confidence 10) [CFAB1368] (AR v2)
Track 8 accurately ripped (confidence 11) [A04A0B26] (AR v2)
Track 9 accurately ripped (confidence 11) [3DEEA703] (AR v2)
Track 10 accurately ripped (confidence 11) [8975B271] (AR v2)
Track 11 accurately ripped (confidence 11) [F2D3434F] (AR v2)
Track 12 accurately ripped (confidence 11) [984C4087] (AR v2)
Track 13 accurately ripped (confidence 11) [CCCAE707] (AR v2)
All tracks accurately ripped
End of status report
---- CUETools DB Plugin V2.1.5
[CTDB TOCID: 9jdgBHCIrdc6NO03wjkmIMlgDGA-] found
Submit result: 9jdgBHCIrdc6NO03wjkmIMlgDGA- has been confirmed
Track | CTDB Status
1 | (12/12) Accurately ripped
2 | (12/12) Accurately ripped
3 | (12/12) Accurately ripped
4 | (12/12) Accurately ripped
5 | (12/12) Accurately ripped
6 | (12/12) Accurately ripped
7 | (12/12) Accurately ripped
8 | (12/12) Accurately ripped
9 | (12/12) Accurately ripped
10 | (12/12) Accurately ripped
11 | (12/12) Accurately ripped
12 | (12/12) Accurately ripped
13 | (12/12) Accurately ripped
==== Log checksum 179957E3EF58CCC87386F88E88D083FE5CD98CF3FD540CFC81A8D8ABCE0BB3E8 ====

1998 - Discouraged Ones (Reissued-2004) ; 01:11:36

Страна-производитель диска (релиза): Russia
Издатель (лейбл): Avantgarde Music/Irond Ltd
Аудиокодек: APE (*.ape)
Тип рипа: image+.cue
Битрейт аудио: lossless
Источник (релизер): mxh ( спасибо )
Треклист:
1. I Break 4:20
2. Stalemate 4:18
3. Deadhouse 4:34
4. Relention 3:36
5. Cold Ways 5:20
6. Gone 2:46
7. Last Resort 4:34
8. Nerve 4:29
9. Saw You Drown 5:01
10. Instrumental 2:49
11. Distrust 4:54
Saw You Drown Single (bonus)
12. Saw You Drown 5:02
13. Nerve 4:29
14. Quiet World 4:36
15. Scarlet Heavens 10:25

Лог создания рипа

EAC extraction logfile from 4. June 2005, 3:15 for CD
Katatonia / Discouraged Ones + Saw You Drown
Used drive : LITE-ON LTR-52327S Adapter: 1 ID: 0
Read mode : Secure with NO C2, accurate stream, disable cache
Read offset correction : 6
Overread into Lead-In and Lead-Out : No
Used output format : Internal WAV Routines
44.100 Hz; 16 Bit; Stereo
Other options :
Fill up missing offset samples with silence : Yes
Delete leading and trailing silent blocks : No
Native Win32 interface for Win NT & 2000
Range status and errors
Selected range
Filename D:\temp\!wav\CDImage.wav
Peak level 100.0 %
Range quality 99.9 %
CRC 99EA6326
Copy OK
No errors occured
End of status report

2001 - Last Fair Deal Gone Down (Remastered-2011, 10th Anniversary Ed.) ; 00:50:55+00:18:18

Страна-производитель диска (релиза): UK
Издатель (лейбл): Peaceville Records
Номер по каталогу: CDVILED335X
Аудиокодек: FLAC (*.flac)
Тип рипа: image+.cue
Битрейт аудио: lossless
Источник (релизер): inotuh ( спасибо )
Треклист:
CD 1:
01. Dispossession 05:36
02. Chrome 05:14
03. We Must Bury You 02:50
04. Teargas 03:23
05. I Transpire 05:56
06. Tonight's Music 04:20
07. Clean Today 04:23
08. The Future of Speech 05:40
09. Passing Bird 03:38
10. Sweet Nurse 03:57
11. Don't Tell a Soul 05:42
CD 2:
01. Sulfur 06:21
02. March 4 03:50
03. Help Me Disappear 05:13
04. O How I Enjoy the Light 02:44

Лог создания рипа CD 1

Exact Audio Copy V1.0 beta 3 from 29. August 2011
EAC extraction logfile from 2. December 2014, 22:05
Katatonia / Last Fair Deal Gone Down (CD1) [CDVILED335X]
Used drive : TSSTcorpCDDVDW SH-222BB Adapter: 1 ID: 0
Read mode : Secure
Utilize accurate stream : Yes
Defeat audio cache : Yes
Make use of C2 pointers : No
Read offset correction : 6
Overread into Lead-In and Lead-Out : No
Fill up missing offset samples with silence : Yes
Delete leading and trailing silent blocks : No
Null samples used in CRC calculations : Yes
Used interface : Native Win32 interface for Win NT & 2000
Used output format : User Defined Encoder
Selected bitrate : 1024 kBit/s
Quality : High
Add ID3 tag : No
Command line compressor : C:\Program Files\Exact Audio Copy\FLAC\FLAC.EXE
Additional command line options : -V -8 -T "Date=%year%" -T "Genre=%genre%" %source%
TOC of the extracted CD
Track | Start | Length | Start sector | End sector
---------------------------------------------------------
1 | 0:00.00 | 5:37.36 | 0 | 25310
2 | 5:37.36 | 5:15.22 | 25311 | 48957
3 | 10:52.58 | 2:51.67 | 48958 | 61849
4 | 13:44.50 | 3:24.11 | 61850 | 77160
5 | 17:08.61 | 5:57.37 | 77161 | 103972
6 | 23:06.23 | 4:21.54 | 103973 | 123601
7 | 27:28.02 | 4:24.37 | 123602 | 143438
8 | 31:52.39 | 5:41.60 | 143439 | 169073
9 | 37:34.24 | 3:39.17 | 169074 | 185515
10 | 41:13.41 | 3:58.07 | 185516 | 203372
11 | 45:11.48 | 5:42.72 | 203373 | 229094
Range status and errors
Selected range
Filename C:\Users\inotuh\Desktop\Katatonia - Last Fair Deal Gone Down (CD1) [CDVILED335X].wav
Peak level 100.0 %
Extraction speed 5.4 X
Range quality 100.0 %
Test CRC B94A77C0
Copy CRC B94A77C0
Copy OK
No errors occurred
AccurateRip summary
Track 1 accurately ripped (confidence 11) [BEA0B913] (AR v2)
Track 2 accurately ripped (confidence 11) [8CC52884] (AR v2)
Track 3 accurately ripped (confidence 11) [4FDF73AE] (AR v2)
Track 4 accurately ripped (confidence 11) [8101CDA1] (AR v2)
Track 5 accurately ripped (confidence 11) [225D7682] (AR v2)
Track 6 accurately ripped (confidence 11) [B3CF0753] (AR v2)
Track 7 accurately ripped (confidence 11) [28CEB026] (AR v2)
Track 8 accurately ripped (confidence 11) [A7FDACAE] (AR v2)
Track 9 accurately ripped (confidence 11) [ADC6A2C6] (AR v2)
Track 10 accurately ripped (confidence 11) [A4FA38FC] (AR v2)
Track 11 accurately ripped (confidence 11) [8B0A5CA7] (AR v2)
All tracks accurately ripped
End of status report
---- CUETools DB Plugin V2.1.5
[CTDB TOCID: WP.tWXe6a2lpKD2IoD2TF3DW0Z8-] found
Submit result: WP.tWXe6a2lpKD2IoD2TF3DW0Z8- has been confirmed
Track | CTDB Status
1 | (14/14) Accurately ripped
2 | (14/14) Accurately ripped
3 | (14/14) Accurately ripped
4 | (14/14) Accurately ripped
5 | (14/14) Accurately ripped
6 | (14/14) Accurately ripped
7 | (14/14) Accurately ripped
8 | (14/14) Accurately ripped
9 | (14/14) Accurately ripped
10 | (14/14) Accurately ripped
11 | (14/14) Accurately ripped
==== Log checksum 9B7F2F5C33177919139E5C2765574DB4334CD5D81C0EEA48903F0CE3AFA4B026 ====

Лог создания рипа CD 2

Exact Audio Copy V1.0 beta 3 from 29. August 2011
EAC extraction logfile from 2. December 2014, 22:37
Katatonia / Last Fair Deal Gone Down (CD2) [CDVILED335X]
Used drive : TSSTcorpCDDVDW SH-222BB Adapter: 1 ID: 0
Read mode : Secure
Utilize accurate stream : Yes
Defeat audio cache : Yes
Make use of C2 pointers : No
Read offset correction : 6
Overread into Lead-In and Lead-Out : No
Fill up missing offset samples with silence : Yes
Delete leading and trailing silent blocks : No
Null samples used in CRC calculations : Yes
Used interface : Native Win32 interface for Win NT & 2000
Used output format : User Defined Encoder
Selected bitrate : 1024 kBit/s
Quality : High
Add ID3 tag : No
Command line compressor : C:\Program Files\Exact Audio Copy\FLAC\FLAC.EXE
Additional command line options : -V -8 -T "Date=%year%" -T "Genre=%genre%" %source%
TOC of the extracted CD
Track | Start | Length | Start sector | End sector
---------------------------------------------------------
1 | 0:00.00 | 6:24.41 | 0 | 28840
2 | 6:24.41 | 3:53.27 | 28841 | 46342
3 | 10:17.68 | 5:15.57 | 46343 | 70024
4 | 15:33.50 | 2:44.06 | 70025 | 82330
Range status and errors
Selected range
Filename C:\Users\inotuh\Desktop\Katatonia - Last Fair Deal Gone Down (CD2) [CDVILED335X].wav
Peak level 100.0 %
Extraction speed 2.2 X
Range quality 100.0 %
Test CRC EB885856
Copy CRC EB885856
Copy OK
No errors occurred
AccurateRip summary
Track 1 accurately ripped (confidence 9) [0EBDCC6B] (AR v2)
Track 2 accurately ripped (confidence 9) [AE083DE0] (AR v2)
Track 3 accurately ripped (confidence 9) [C2820609] (AR v2)
Track 4 accurately ripped (confidence 9) [E587A034] (AR v2)
All tracks accurately ripped
End of status report
---- CUETools DB Plugin V2.1.5
[CTDB TOCID: NQYOuue52SGSgySBy09Jiy0lXmA-] found
Submit result: NQYOuue52SGSgySBy09Jiy0lXmA- has been confirmed
Track | CTDB Status
1 | (13/13) Accurately ripped
2 | (13/13) Accurately ripped
3 | (13/13) Accurately ripped
4 | (13/13) Accurately ripped
==== Log checksum 5344606AEAB141E922F12A9706DAFD01914D51A9DE2D095E6F1C507D972AEEB0 ====

2001 - Tonight's Music ( EP ) ; 00:12:18

Страна-производитель диска (релиза): UK
Издатель (лейбл): Peaceville Records
Номер по каталогу: CDVILES113 / 651132
Аудиокодек: APE (*.ape)
Тип рипа: image+.cue
Битрейт аудио: lossless
Источник (релизер): LordSeth ( спасибо )
Треклист:
1. Tonight's Music 04:20
2. Help Me Disappear 05:13
3. Oh How I Enjoy the Light 02:44

Лог создания рипа

Exact Audio Copy V1.0 beta 3 from 29. August 2011
EAC extraction logfile from 23. October 2012, 0:32
Katatonia / Tonight's Music
Used drive : PLEXTOR BD-R PX-LB950SA Adapter: 0 ID: 1
Read mode : Secure
Utilize accurate stream : Yes
Defeat audio cache : Yes
Make use of C2 pointers : No
Read offset correction : 6
Overread into Lead-In and Lead-Out : No
Fill up missing offset samples with silence : Yes
Delete leading and trailing silent blocks : No
Null samples used in CRC calculations : Yes
Used interface : Native Win32 interface for Win NT & 2000
Used output format : Monkey's Audio Lossless Encoder
Selected bitrate : High Lossless Compression
Quality : High
Add ID3 tag : Yes
Command line compressor : C:\Program Files (x86)\Monkey's Audio\MAC.exe
TOC of the extracted CD
Track | Start | Length | Start sector | End sector
---------------------------------------------------------
1 | 0:00.00 | 4:20.34 | 0 | 19533
2 | 4:20.34 | 5:13.57 | 19534 | 43065
3 | 9:34.16 | 2:44.06 | 43066 | 55371
Range status and errors
Selected range
Filename C:\Trash\KATATONIA [2001] [MCD] Tonight's Music\Katatonia - Tonight's Music.wav
Peak level 100.0 %
Extraction speed 2.5 X
Range quality 100.0 %
Test CRC 27B973B3
Copy CRC 27B973B3
Copy OK
No errors occurred
AccurateRip summary
Track 1 accurately ripped (confidence 5) [A2DE5237] (AR v1)
Track 2 accurately ripped (confidence 6) [0233986A] (AR v1)
Track 3 accurately ripped (confidence 6) [4599646F] (AR v1)
All tracks accurately ripped
End of status report
==== Log checksum 2E64832D3A5C90FC876903E7FEA778DB9AE28DBF401CA141FC57AA160FCDF3AC ====

2003 - Viva Emptiness (Remixed-2013, 10th Anniversary Ed.) ; 00:58:11

Страна-производитель диска (релиза): UK
Издатель (лейбл): Peaceville Records
Номер по каталогу: CDVILED484X
Аудиокодек: FLAC (*.flac)
Тип рипа: image+.cue
Битрейт аудио: lossless
Источник (релизер): inotuh ( спасибо )
Треклист:
01. Ghost of the Sun 04:07
02. Sleeper 04:08
03. Criminals 03:47
04. A Premonition 03:33
05. Will I Arrive 04:09
06. Burn the Remembrance 05:22
07. Wealth 04:22
08. One Year From Now 04:02
09. Walking By a Wire 03:32
10. Complicity 04:01
11. Evidence 04:36
12. Omerta 02:58
13. Wait Outside 03:38
14. Inside the City of Glass 04:08

Лог создания рипа

Exact Audio Copy V1.0 beta 3 from 29. August 2011
EAC extraction logfile from 2. December 2014, 23:38
Katatonia / Viva Emptiness [CDVILED484X, 10th Anniversary, 2013]
Used drive : TSSTcorpCDDVDW SH-222BB Adapter: 1 ID: 0
Read mode : Secure
Utilize accurate stream : Yes
Defeat audio cache : Yes
Make use of C2 pointers : No
Read offset correction : 6
Overread into Lead-In and Lead-Out : No
Fill up missing offset samples with silence : Yes
Delete leading and trailing silent blocks : No
Null samples used in CRC calculations : Yes
Used interface : Native Win32 interface for Win NT & 2000
Used output format : User Defined Encoder
Selected bitrate : 1024 kBit/s
Quality : High
Add ID3 tag : No
Command line compressor : C:\Program Files\Exact Audio Copy\FLAC\FLAC.EXE
Additional command line options : -V -8 -T "Date=%year%" -T "Genre=%genre%" %source%
TOC of the extracted CD
Track | Start | Length | Start sector | End sector
---------------------------------------------------------
1 | 0:00.00 | 4:07.14 | 0 | 18538
2 | 4:07.14 | 4:10.06 | 18539 | 37294
3 | 8:17.20 | 3:49.66 | 37295 | 54535
4 | 12:07.11 | 3:34.04 | 54536 | 70589
5 | 15:41.15 | 4:06.64 | 70590 | 89103
6 | 19:48.04 | 5:25.33 | 89104 | 113511
7 | 25:13.37 | 4:24.25 | 113512 | 133336
8 | 29:37.62 | 4:03.43 | 133337 | 151604
9 | 33:41.30 | 3:34.70 | 151605 | 167724
10 | 37:16.25 | 4:05.09 | 167725 | 186108
11 | 41:21.34 | 4:35.64 | 186109 | 206797
12 | 45:57.23 | 2:59.72 | 206798 | 220294
13 | 48:57.20 | 3:38.54 | 220295 | 236698
14 | 52:35.74 | 5:35.25 | 236699 | 261848
Range status and errors
Selected range
Filename C:\Users\inotuh\Desktop\Katatonia - Viva Emptiness [CDVILED484X, 10th Anniversary, 2013].wav
Peak level 96.8 %
Extraction speed 5.6 X
Range quality 99.9 %
Test CRC 0DB1A860
Copy CRC 0DB1A860
Copy OK
No errors occurred
AccurateRip summary
Track 1 accurately ripped (confidence 14) [AEABDE5B] (AR v2)
Track 2 accurately ripped (confidence 14) [A92739DC] (AR v2)
Track 3 accurately ripped (confidence 14) [24533FD5] (AR v2)
Track 4 accurately ripped (confidence 14) [81F52E48] (AR v2)
Track 5 accurately ripped (confidence 14) [B38682C8] (AR v2)
Track 6 accurately ripped (confidence 14) [BAA2979F] (AR v2)
Track 7 accurately ripped (confidence 14) [E0F31AE7] (AR v2)
Track 8 accurately ripped (confidence 14) [F8E3D12B] (AR v2)
Track 9 accurately ripped (confidence 14) [3663BE44] (AR v2)
Track 10 accurately ripped (confidence 14) [05A5266F] (AR v2)
Track 11 accurately ripped (confidence 14) [9F1D3204] (AR v2)
Track 12 accurately ripped (confidence 14) [F79B5F72] (AR v2)
Track 13 accurately ripped (confidence 14) [A33D7E64] (AR v2)
Track 14 accurately ripped (confidence 14) [EC1462E3] (AR v2)
All tracks accurately ripped
End of status report
---- CUETools DB Plugin V2.1.5
[CTDB TOCID: hsA5B0eC6p5qENIKZOMXLHjj0oE-] found
Submit result: hsA5B0eC6p5qENIKZOMXLHjj0oE- has been confirmed
Track | CTDB Status
1 | (20/20) Accurately ripped
2 | (20/20) Accurately ripped
3 | (20/20) Accurately ripped
4 | (20/20) Accurately ripped
5 | (20/20) Accurately ripped
6 | (20/20) Accurately ripped
7 | (20/20) Accurately ripped
8 | (20/20) Accurately ripped
9 | (20/20) Accurately ripped
10 | (20/20) Accurately ripped
11 | (20/20) Accurately ripped
12 | (20/20) Accurately ripped
13 | (20/20) Accurately ripped
14 | (20/20) Accurately ripped
==== Log checksum D9870CC12DA8914C3F66D4D2E5B1D67ABD336A07CC3BD6808B2EDA2A156C2D69 ====

2006 - The Great Cold Distance ( Reissued-2009 ) ; 01:00:47

Страна-производитель диска (релиза): UK
Издатель (лейбл): Peaceville Records
Номер по каталогу: CDVILED264X
Аудиокодек: WAVPack
Тип рипа: image+.cue
Битрейт аудио: lossless
Источник (релизер): shareminer ( спасибо )
Треклист:
01. Leaders
02. Deliberation
03. Soil's Song
04. My Twin
05. Consternation
06. Follower
07. Rusted
08. Increase
09. July
10. In The White
11. The Itch
12. Journey Through Pressure
13. Displaced
14. Dissolving Bonds

Лог создания рипа

Exact Audio Copy V0.99 prebeta 5 from 4. May 2009
EAC extraction logfile from 15. June 2010, 21:38
Katatonia / The Great Cold Distance
Used drive : HL-DT-STDVD-RAM GSA-H55L Adapter: 1 ID: 1
Read mode : Secure
Utilize accurate stream : Yes
Defeat audio cache : Yes
Make use of C2 pointers : No
Read offset correction : 102
Overread into Lead-In and Lead-Out : No
Fill up missing offset samples with silence : Yes
Delete leading and trailing silent blocks : No
Null samples used in CRC calculations : Yes
Used interface : Native Win32 interface for Win NT & 2000
Used output format : Internal WAV Routines
Sample format : 44.100 Hz; 16 Bit; Stereo
TOC of the extracted CD
Track | Start | Length | Start sector | End sector
---------------------------------------------------------
1 | 0:00.00 | 4:20.68 | 0 | 19567
2 | 4:20.68 | 3:59.44 | 19568 | 37536
3 | 8:20.37 | 4:12.16 | 37537 | 56452
4 | 12:32.53 | 3:41.05 | 56453 | 73032
5 | 16:13.58 | 3:50.49 | 73033 | 90331
6 | 20:04.32 | 4:45.45 | 90332 | 111751
7 | 24:50.02 | 4:21.06 | 111752 | 131332
8 | 29:11.08 | 4:20.01 | 131333 | 150833
9 | 33:31.09 | 4:45.23 | 150834 | 172231
10 | 38:16.32 | 4:53.44 | 172232 | 194250
11 | 43:10.01 | 4:20.33 | 194251 | 213783
12 | 47:30.34 | 4:17.17 | 213784 | 233075
13 | 51:47.51 | 5:16.32 | 233076 | 256807
14 | 57:04.08 | 3:43.26 | 256808 | 273558
Range status and errors
Selected range
Filename D:\Katatonia - The Great Cold Distance.wav
Peak level 100.0 %
Range quality 99.9 %
Copy CRC 82CE46B7
Copy OK
No errors occurred
AccurateRip summary
Track 1 accurately ripped (confidence 10) [5FEDC264]
Track 2 accurately ripped (confidence 10) [584E83CC]
Track 3 accurately ripped (confidence 10) [D86BA0C8]
Track 4 accurately ripped (confidence 10) [03612C74]
Track 5 accurately ripped (confidence 10) [FB7D9087]
Track 6 accurately ripped (confidence 10) [4F0EC871]
Track 7 accurately ripped (confidence 10) [5885C47A]
Track 8 accurately ripped (confidence 10) [2101BA0D]
Track 9 accurately ripped (confidence 10) [3838E1C1]
Track 10 accurately ripped (confidence 9) [A31D8B3F]
Track 11 accurately ripped (confidence 10) [061B87A2]
Track 12 accurately ripped (confidence 10) [2CDAED9C]
Track 13 accurately ripped (confidence 9) [C9478274]
Track 14 accurately ripped (confidence 10) [544990D8]
All tracks accurately ripped
End of status report

2009 - Night Is The New Day (Ltd. Ed. Digibook) ; 01:10:56

Страна-производитель диска (релиза): UK
Издатель (лейбл): Peaceville Records
Номер по каталогу: cdvilef271x 801056827227
Аудиокодек: FLAC (*.flac)
Тип рипа: image+.cue
Битрейт аудио: lossless
Источник (релизер): snecy ( спасибо )
Треклист:
1. Forsaker 04:05
2. The Longest Year 04:39
3. Idle Blood 04:23
4. Onward Into Battle 03:52
5. Liberation 04:18
6. The Promise of Deceit 04:18
7. Nephilim 04:27
8. New Night 04:28
9. Inheritance 04:30
10. Day & Then the Shade 04:27
11. Ashen 4:09
12. Departer 05:27

Лог создания рипа

Exact Audio Copy V0.99 prebeta 5 from 4. May 2009
EAC extraction logfile from 20. December 2009, 9:12
Katatonia / Night is the New Day
Used drive : _NEC DVD_RW ND-3540A Adapter: 0 ID: 0
Read mode : Secure
Utilize accurate stream : Yes
Defeat audio cache : Yes
Make use of C2 pointers : No
Read offset correction : 48
Overread into Lead-In and Lead-Out : No
Fill up missing offset samples with silence : Yes
Delete leading and trailing silent blocks : No
Null samples used in CRC calculations : Yes
Used interface : Native Win32 interface for Win NT & 2000
Used output format : User Defined Encoder
Selected bitrate : 40 kBit/s
Quality : High
Add ID3 tag : No
Command line compressor : C:\Program Files\Exact Audio Copy\FLAC.EXE
Additional command line options : -6 -V %s
TOC of the extracted CD
Track | Start | Length | Start sector | End sector
---------------------------------------------------------
1 | 0:00.00 | 4:04.17 | 0 | 18316
2 | 4:04.17 | 4:37.57 | 18317 | 39148
3 | 8:41.74 | 4:21.18 | 39149 | 58741
4 | 13:03.17 | 3:49.63 | 58742 | 75979
5 | 16:53.05 | 4:16.11 | 75980 | 95190
6 | 21:09.16 | 4:15.52 | 95191 | 114367
7 | 25:24.68 | 4:25.14 | 114368 | 134256
8 | 29:50.07 | 4:25.64 | 134257 | 154195
9 | 34:15.71 | 4:28.09 | 154196 | 174304
10 | 38:44.05 | 4:27.52 | 174305 | 194381
11 | 43:11.57 | 4:08.33 | 194382 | 213014
12 | 47:20.15 | 5:22.68 | 213015 | 237232
Range status and errors
Selected range
Filename D:\ddd\Katatonia [CD] [2009] Night is the New Day Limited Edition Digibook [EAC-FLAC] by gorogdinnye3 [MeTaLMaDNesSS.Team]\Katatonia - Night is the New Day (Ltd Digibook).wav
Peak level 98.9 %
Range quality 100.0 %
Copy CRC 859C9063
Copy OK
No errors occurred
AccurateRip summary
Track 1 accurately ripped (confidence 18) [F04EAC38]
Track 2 accurately ripped (confidence 18) [03F7154B]
Track 3 accurately ripped (confidence 17) [A4DADAD7]
Track 4 accurately ripped (confidence 17) [73BF9085]
Track 5 accurately ripped (confidence 17) [500772F1]
Track 6 accurately ripped (confidence 17) [EB6977B2]
Track 7 accurately ripped (confidence 17) [F37D5E39]
Track 8 accurately ripped (confidence 17) [26A61690]
Track 9 accurately ripped (confidence 17) [CA10D3B4]
Track 10 accurately ripped (confidence 17) [903D6939]
Track 11 accurately ripped (confidence 17) [BDF84622]
Track 12 accurately ripped (confidence 17) [CF667852]
All tracks accurately ripped
End of status report

2010 - The Longest Year ( EP ) ; 00:18:20

Страна-производитель диска (релиза): UK
Издатель (лейбл): Peaceville Records
Номер по каталогу: CDVILES282
Аудиокодек: FLAC (*.flac)
Тип рипа: image+.cue
Битрейт аудио: lossless
Источник (релизер): shareminer ( спасибо )
Треклист:
1. The Longest Year
2. Sold Heart
3. Day and Then the Shade (Frank Default remix)
4. Idle Blood (Linje 14)

Лог создания рипа

Exact Audio Copy V0.99 prebeta 5 from 4. May 2009
EAC extraction logfile from 29. March 2010, 20:36
Katatonia / The Longest Year
Used drive : HL-DT-STDVD-RAM GSA-H55L Adapter: 1 ID: 1
Read mode : Secure
Utilize accurate stream : Yes
Defeat audio cache : Yes
Make use of C2 pointers : No
Read offset correction : 102
Overread into Lead-In and Lead-Out : No
Fill up missing offset samples with silence : Yes
Delete leading and trailing silent blocks : No
Null samples used in CRC calculations : Yes
Used interface : Native Win32 interface for Win NT & 2000
Used output format : Internal WAV Routines
Sample format : 44.100 Hz; 16 Bit; Stereo
TOC of the extracted CD
Track | Start | Length | Start sector | End sector
---------------------------------------------------------
1 | 0:00.00 | 4:43.58 | 0 | 21282
2 | 4:43.58 | 4:34.00 | 21283 | 41832
3 | 9:17.58 | 5:37.72 | 41833 | 67179
4 | 14:55.55 | 3:23.69 | 67180 | 82473
5 | 20:51.49 | 18:31.62 | 93874 | 177260
Range status and errors
Selected range
Filename D:\Katatonia - The Longest Year.wav
Peak level 98.8 %
Range quality 99.9 %
Copy CRC 00D11A89
Copy OK
No errors occurred
AccurateRip summary
Track 1 not present in database
Track 2 not present in database
Track 3 not present in database
Track 4 not present in database
None of the tracks are present in the AccurateRip database
End of status report

2012 - Dead End Kings (Deluxe Edition) ; 00:57:53

Страна-производитель диска (релиза): UK
Издатель (лейбл): Peaceville Records
Номер по каталогу: EBVILE003
Аудиокодек: FLAC (*.flac)
Тип рипа: image+.cue
Битрейт аудио: lossless
Источник (релизер): dwaas26 ( спасибо )
Треклист:
1. The Parting
2. The One You Are Looking For Is Not Here
3. Hypnone
4. The Racing Heart
5. Buildings Buildings
6. Leech
7. Ambitions
8. Undo You
9. Lethean Lethean
10. First Prayer
11. Dead Letters Dead Letters
12. Second
13. The Act Of Darkening

Лог создания рипа

Exact Audio Copy V1.0 beta 1 from 15. November 2010
EAC extraction logfile from 26. August 2012, 14:12
Katatonia / Dead End Kings (Ltd. Edition)
Used drive : Optiarc DVD RW AD-5260S Adapter: 0 ID: 1
Read mode : Secure
Utilize accurate stream : Yes
Defeat audio cache : Yes
Make use of C2 pointers : No
Read offset correction : 48
Overread into Lead-In and Lead-Out : No
Fill up missing offset samples with silence : Yes
Delete leading and trailing silent blocks : No
Null samples used in CRC calculations : Yes
Used interface : Native Win32 interface for Win NT & 2000
Used output format : User Defined Encoder
Selected bitrate : 768 kBit/s
Quality : High
Add ID3 tag : Yes
Command line compressor : C:\Program Files (x86)\Exact Audio Copy\Flac\flac.exe
Additional command line options : -6 -V -T "ARTIST=%a" -T "TITLE=%t" -T "ALBUM=%g" -T "DATE=%y" -T "TRACKNUMBER=%n" -T "GENRE=%m" -T "COMMENT=%e" %j--picture="%i"%j %s -o %d
TOC of the extracted CD
Track | Start | Length | Start sector | End sector
---------------------------------------------------------
1 | 0:00.00 | 4:52.26 | 0 | 21925
2 | 4:52.26 | 3:52.17 | 21926 | 39342
3 | 8:44.43 | 4:06.44 | 39343 | 57836
4 | 12:51.12 | 4:05.66 | 57837 | 76277
5 | 16:57.03 | 3:28.10 | 76278 | 91887
6 | 20:25.13 | 4:23.06 | 91888 | 111618
7 | 24:48.19 | 5:08.43 | 111619 | 134761
8 | 29:56.62 | 4:55.41 | 134762 | 156927
9 | 34:52.28 | 4:39.14 | 156928 | 177866
10 | 39:31.42 | 4:25.71 | 177867 | 197812
11 | 43:57.38 | 4:26.59 | 197813 | 217821
12 | 48:24.22 | 3:33.44 | 217822 | 233840
13 | 51:57.66 | 5:55.32 | 233841 | 260497
Range status and errors
Selected range
Filename C:\EAC\Katatonia - Dead End Kings (Ltd. Edition).wav
Peak level 100.0 %
Extraction speed 0.4 X
Range quality 100.0 %
Copy CRC 3C9623DA
Copy OK
No errors occurred
AccurateRip summary
Track 1 not present in database
Track 2 not present in database
Track 3 not present in database
Track 4 not present in database
Track 5 not present in database
Track 6 not present in database
Track 7 not present in database
Track 8 not present in database
Track 9 not present in database
Track 10 not present in database
Track 11 not present in database
Track 12 not present in database
Track 13 not present in database
None of the tracks are present in the AccurateRip database
End of status report

2012 - Dead End Kings (Rus. Ed. Digipack) ; 00:57:53

Страна-производитель диска (релиза): Russia
Издатель (лейбл): Peaceville Records/MAZZAR
Номер по каталогу: MZR CD 559
Аудиокодек: FLAC (*.flac)
Тип рипа: image+.cue
Битрейт аудио: lossless
Источник (релизер): inotuh ( спасибо )
Треклист:
1. The Parting
2. The One You Are Looking for Is Not Here
3. Hypnone
4. The Racing Heart
5. Buildings
6. Leech
7. Ambitions
8. Undo You
9. Lethean
10. First Prayer
11. Dead Letters
12. Hypnone (Frank Default Hypnocadence Mix) - bonus track

Лог создания рипа

Exact Audio Copy V1.0 beta 3 from 29. August 2011
EAC extraction logfile from 23. October 2012, 20:49
Katatonia / Dead End Kings [MZR CD 559]
Used drive : Optiarc DVD RW AD-7173A Adapter: 0 ID: 0
Read mode : Secure
Utilize accurate stream : Yes
Defeat audio cache : Yes
Make use of C2 pointers : No
Read offset correction : 48
Overread into Lead-In and Lead-Out : No
Fill up missing offset samples with silence : Yes
Delete leading and trailing silent blocks : No
Null samples used in CRC calculations : Yes
Used interface : Native Win32 interface for Win NT & 2000
Used output format : Internal WAV Routines
Sample format : 44.100 Hz; 16 Bit; Stereo
TOC of the extracted CD
Track | Start | Length | Start sector | End sector
---------------------------------------------------------
1 | 0:00.00 | 4:52.26 | 0 | 21925
2 | 4:52.26 | 3:52.17 | 21926 | 39342
3 | 8:44.43 | 4:06.44 | 39343 | 57836
4 | 12:51.12 | 4:05.66 | 57837 | 76277
5 | 16:57.03 | 3:28.10 | 76278 | 91887
6 | 20:25.13 | 4:23.06 | 91888 | 111618
7 | 24:48.19 | 5:08.43 | 111619 | 134761
8 | 29:56.62 | 4:55.41 | 134762 | 156927
9 | 34:52.28 | 4:39.14 | 156928 | 177866
10 | 39:31.42 | 4:25.71 | 177867 | 197812
11 | 43:57.38 | 4:26.59 | 197813 | 217821
12 | 48:24.22 | 4:46.10 | 217822 | 239281
Range status and errors
Selected range
Filename C:\Documents and Settings\Inotuh\Рабочий стол\Katatonia - Dead End Kings [MZR CD 559].wav
Peak level 100.0 %
Extraction speed 2.0 X
Range quality 100.0 %
Test CRC B3A0CE89
Copy CRC B3A0CE89
Copy OK
No errors occurred
AccurateRip summary
Track 1 not present in database
Track 2 not present in database
Track 3 not present in database
Track 4 not present in database
Track 5 not present in database
Track 6 not present in database
Track 7 not present in database
Track 8 not present in database
Track 9 not present in database
Track 10 not present in database
Track 11 not present in database
Track 12 not present in database
None of the tracks are present in the AccurateRip database
End of status report

2012 - Live in Paris / Demos / Rehearsals [CD-Bootleg] ; 01:12:49

Номер по каталогу: N/A
Аудиокодек: FLAC (*.flac)
Тип рипа: image+.cue
Битрейт аудио: lossless
Источник (релизер): LordSeth ( спасибо )
Треклист:
- Live In Paris -
01. Intro / Deadhouse 4:11
02. Teargas 5:26
03. Stalemate 5:45
04. March 4 1:10
05. Tonight's Music 4:16
06. For My Demons 3:10
07. The Future Of The Speech 4:54
08. Sweet Nurse 3:58
09. I Am Nothing 5:10
10. Cold Ways 4:08
11. Murder 5:41
- Rehearsal (Demo) (1991) -
12. Eye Of The Goat 5:40
13. Rites Of Winter 4:12
14. The Gathering In Flames 4:49
- Rehearsal (1992) -
15. Daylight Harvest 5:08
16. Sunset Choir 5:10

Лог создания рипа

Exact Audio Copy V1.0 beta 3 from 29. August 2011
EAC extraction logfile from 29. July 2014, 23:14
Katatonia / Live in Paris / Demos / Rehearsals
Used drive : PLEXTOR BD-R PX-LB950SA Adapter: 2 ID: 0
Read mode : Secure
Utilize accurate stream : Yes
Defeat audio cache : Yes
Make use of C2 pointers : No
Read offset correction : 6
Overread into Lead-In and Lead-Out : No
Fill up missing offset samples with silence : Yes
Delete leading and trailing silent blocks : No
Null samples used in CRC calculations : Yes
Used interface : Native Win32 interface for Win NT & 2000
Used output format : User Defined Encoder
Selected bitrate : 896 kBit/s
Quality : High
Add ID3 tag : No
Command line compressor : C:\Program Files (x86)\FLAC\flac.exe
Additional command line options : -6 -V %source%
TOC of the extracted CD
Track | Start | Length | Start sector | End sector
---------------------------------------------------------
1 | 0:00.00 | 4:11.03 | 0 | 18827
2 | 4:11.03 | 5:26.17 | 18828 | 43294
3 | 9:37.20 | 5:44.66 | 43295 | 69160
4 | 15:22.11 | 1:10.36 | 69161 | 74446
5 | 16:32.47 | 4:16.18 | 74447 | 93664
6 | 20:48.65 | 3:10.02 | 93665 | 107916
7 | 23:58.67 | 4:53.57 | 107917 | 129948
8 | 28:52.49 | 3:58.24 | 129949 | 147822
9 | 32:50.73 | 5:10.16 | 147823 | 171088
10 | 38:01.14 | 4:08.05 | 171089 | 189693
11 | 42:09.19 | 5:41.16 | 189694 | 215284
12 | 47:50.35 | 5:40.01 | 215285 | 240785
13 | 53:30.36 | 4:11.72 | 240786 | 259682
14 | 57:42.33 | 4:48.63 | 259683 | 281345
15 | 62:31.21 | 5:08.09 | 281346 | 304454
16 | 67:39.30 | 5:09.72 | 304455 | 327701
Range status and errors
Selected range
Filename C:\Trash\Katatonia - Live in Paris + Demos + Rehearsals\Katatonia - Live in Paris , Demos , Rehearsals.wav
Peak level 100.0 %
Extraction speed 3.6 X
Range quality 100.0 %
Test CRC 118C7A26
Copy CRC 118C7A26
Copy OK
No errors occurred
AccurateRip summary
Track 1 not present in database
Track 2 not present in database
Track 3 not present in database
Track 4 not present in database
Track 5 not present in database
Track 6 not present in database
Track 7 not present in database
Track 8 not present in database
Track 9 not present in database
Track 10 not present in database
Track 11 not present in database
Track 12 not present in database
Track 13 not present in database
Track 14 not present in database
Track 15 not present in database
Track 16 not present in database
None of the tracks are present in the AccurateRip database
End of status report
==== Log checksum 2E1F8645DE2913C0EAB4C621CA5884BD4DD0FA69C0B5FECB1CAFBADB168C7B61 ====

2013 - Introducing Katatonia ( Compilation ) ; 00:38:21 + 00:44:55

Страна-производитель диска (релиза): UK
Издатель (лейбл): Snapper Music
Номер по каталогу: SMDCD903
Аудиокодек: FLAC (*.flac)
Тип рипа: image+.cue
Битрейт аудио: lossless
Источник (релизер): LordSeth ( спасибо )
Треклист:
Disc 1
1. Dead Letters 04:49
2. Nephilim 04:25
3. Idle Blood 04:21
4. Forsaker 04:04
5. July 04:45
6. Soil's Song 04:12
7. Evidence 04:36
8. Walking by a Wire 03:32
9. Criminals 03:47
Disc 2
1. Clean Today 04:23
2. Teargas 03:23
3. Dispossession 05:37
4. Right into the Bliss 05:20
5. In Death, a Song 04:51
6. Cold Ways 05:22
7. I Break 04:24
8. Murder 04:56
9. Without God 06:52

Лог создания рипа CD 1

Exact Audio Copy V1.0 beta 3 from 29. August 2011
EAC extraction logfile from 4. April 2014, 0:13
Katatonia / Introducing Katatonia (CD-1)
Used drive : PLEXTOR BD-R PX-LB950SA Adapter: 2 ID: 0
Read mode : Secure
Utilize accurate stream : Yes
Defeat audio cache : Yes
Make use of C2 pointers : No
Read offset correction : 6
Overread into Lead-In and Lead-Out : No
Fill up missing offset samples with silence : Yes
Delete leading and trailing silent blocks : No
Null samples used in CRC calculations : Yes
Used interface : Native Win32 interface for Win NT & 2000
Used output format : User Defined Encoder
Selected bitrate : 896 kBit/s
Quality : High
Add ID3 tag : No
Command line compressor : C:\Program Files (x86)\FLAC\flac.exe
Additional command line options : -6 -V %source%
TOC of the extracted CD
Track | Start | Length | Start sector | End sector
---------------------------------------------------------
1 | 0:00.00 | 4:26.58 | 0 | 20007
2 | 4:26.58 | 4:26.42 | 20008 | 39999
3 | 8:53.25 | 4:22.25 | 40000 | 59674
4 | 13:15.50 | 4:06.66 | 59675 | 78190
5 | 17:22.41 | 4:47.30 | 78191 | 99745
6 | 22:09.71 | 4:12.56 | 99746 | 118701
7 | 26:22.52 | 4:37.45 | 118702 | 139521
8 | 31:00.22 | 3:34.04 | 139522 | 155575
9 | 34:34.26 | 3:46.13 | 155576 | 172538
Range status and errors
Selected range
Filename C:\Trash\Katatonia - Introducing Katatonia\Katatonia - Introducing Katatonia (CD-1).wav
Peak level 94.4 %
Extraction speed 3.1 X
Range quality 100.0 %
Test CRC B7E80EC7
Copy CRC B7E80EC7
Copy OK
No errors occurred
AccurateRip summary
Track 1 accurately ripped (confidence 2) [B3F0AA91] (AR v2)
Track 2 accurately ripped (confidence 2) [1A6F246A] (AR v2)
Track 3 accurately ripped (confidence 2) [E35B02DB] (AR v2)
Track 4 accurately ripped (confidence 2) [406991B9] (AR v2)
Track 5 accurately ripped (confidence 2) [0E7A1A96] (AR v2)
Track 6 accurately ripped (confidence 2) [B0661786] (AR v2)
Track 7 accurately ripped (confidence 2) [EC78E175] (AR v2)
Track 8 accurately ripped (confidence 2) [1D17BB42] (AR v2)
Track 9 accurately ripped (confidence 2) [C0B77850] (AR v2)
All tracks accurately ripped
End of status report
==== Log checksum 5F4ACA033C64BB63F41860A3FE93CA43613EC25479CA5F57CA364111EFB08420 ====

Лог создания рипа CD 2

Exact Audio Copy V1.0 beta 3 from 29. August 2011
EAC extraction logfile from 10. April 2014, 1:01
Katatonia / Introducing Katatonia (CD-2)
Used drive : PLEXTOR BD-R PX-LB950SA Adapter: 2 ID: 0
Read mode : Secure
Utilize accurate stream : Yes
Defeat audio cache : Yes
Make use of C2 pointers : No
Read offset correction : 6
Overread into Lead-In and Lead-Out : No
Fill up missing offset samples with silence : Yes
Delete leading and trailing silent blocks : No
Null samples used in CRC calculations : Yes
Used interface : Native Win32 interface for Win NT & 2000
Used output format : User Defined Encoder
Selected bitrate : 896 kBit/s
Quality : High
Add ID3 tag : No
Command line compressor : C:\Program Files (x86)\FLAC\flac.exe
Additional command line options : -6 -V %source%
TOC of the extracted CD
Track | Start | Length | Start sector | End sector
---------------------------------------------------------
1 | 0:00.00 | 4:23.41 | 0 | 19765
2 | 4:23.41 | 3:25.03 | 19766 | 35143
3 | 7:48.44 | 5:36.63 | 35144 | 60406
4 | 13:25.32 | 5:05.69 | 60407 | 83350
5 | 18:31.26 | 4:53.21 | 83351 | 105346
6 | 23:24.47 | 5:23.06 | 105347 | 129577
7 | 28:47.53 | 4:23.22 | 129578 | 149324
8 | 33:11.00 | 4:55.06 | 149325 | 171455
9 | 38:06.06 | 6:48.49 | 171456 | 202104
Range status and errors
Selected range
Filename C:\Trash\Katatonia - Introducing Katatonia\Katatonia - Introducing Katatonia (CD-2).wav
Peak level 93.3 %
Extraction speed 3.3 X
Range quality 100.0 %
Test CRC D4595C17
Copy CRC D4595C17
Copy OK
No errors occurred
AccurateRip summary
Track 1 accurately ripped (confidence 2) [76BBD9EC] (AR v2)
Track 2 accurately ripped (confidence 2) [BCA493BA] (AR v2)
Track 3 accurately ripped (confidence 2) [E9118EC5] (AR v2)
Track 4 accurately ripped (confidence 2) [0281E310] (AR v2)
Track 5 accurately ripped (confidence 2) [B7D029B7] (AR v2)
Track 6 accurately ripped (confidence 2) [9AECA11A] (AR v2)
Track 7 accurately ripped (confidence 2) [E5DFB1B7] (AR v2)
Track 8 accurately ripped (confidence 2) [77E6E287] (AR v2)
Track 9 accurately ripped (confidence 2) [615DDBAA] (AR v2)
All tracks accurately ripped
End of status report
==== Log checksum 7FED0D3ACE48EC6247426EDD817DD6A5431AE5A8CF16867F5B5A9F8E1CA77199 ====
Sanctitude Live album

2015 - Sanctitude ( Live album ) ; 01:19:58

Страна-производитель диска (релиза): UK
Издатель (лейбл): Kscope
Номер по каталогу: KSCOPE322
Аудиокодек: FLAC (*.flac)
Тип рипа: track +.cue
Битрейт аудио: lossless
Источник (релизер): what.cd
Треклист:
1. In The White (5:39)
2. Ambitions (5:01)
3. Teargas (3:10)
4. Gone (3:47)
5. A Darkness Coming (5:16)
6. One Year From Now (4:09)
7. The Racing Heart (4:26)
8. Tonight's Music (4:15)
9. Sleeper (4:38)
10. Undo You (4:49)
11. Lethean (4:47)
12. Day (4:38)
13. Idle Blood (4:31)
14. Unfurl (6:33)
15. Omerta (3:37)
16. Evidence (6:06)
17. The One You Are Looking For Is Not Here (4:28)

Лог создания рипа

X Lossless Decoder version 20141129 (148.1)
XLD extraction logfile from 2015-04-01 12:58:42 +0200
Katatonia / Sanctitude
Used drive : HL-DT-ST DVDRAM GP70NS50 (revision 1.00)
Media type : Pressed CD
Ripper mode : XLD Secure Ripper
Disable audio cache : OK for the drive with a cache less than 1375KiB
Make use of C2 pointers : NO
Read offset correction : 6
Max retry count : 20
Gap status : Analyzed, Appended (except HTOA)
TOC of the extracted CD
Track | Start | Length | Start sector | End sector
---------------------------------------------------------
1 | 00:00:00 | 05:39:51 | 0 | 25475
2 | 05:39:51 | 05:01:27 | 25476 | 48077
3 | 10:41:03 | 03:10:27 | 48078 | 62354
4 | 13:51:30 | 03:47:70 | 62355 | 79449
5 | 17:39:25 | 05:16:52 | 79450 | 103201
6 | 22:56:02 | 04:09:71 | 103202 | 121947
7 | 27:05:73 | 04:26:06 | 121948 | 141903
8 | 31:32:04 | 04:15:20 | 141904 | 161048
9 | 35:47:24 | 04:38:34 | 161049 | 181932
10 | 40:25:58 | 04:49:33 | 181933 | 203640
11 | 45:15:16 | 04:47:61 | 203641 | 225226
12 | 50:03:02 | 04:38:10 | 225227 | 246086
13 | 54:41:12 | 04:31:54 | 246087 | 266465
14 | 59:12:66 | 06:33:17 | 266466 | 295957
15 | 65:46:08 | 03:37:29 | 295958 | 312261
16 | 69:23:37 | 06:06:21 | 312262 | 339732
17 | 75:29:58 | 04:28:04 | 339733 | 359836
AccurateRip Summary
Disc not found in AccurateRip DB.
All Tracks
Album gain : -6.91 dB
Peak : 0.979279
Statistics
Read error : 0
Jitter error (maybe fixed) : 0
Retry sector count : 0
Damaged sector count : 0
Track 01
Filename : /Users/Stefan/Music/Katatonia {2015} Sanctitude [MP3-V0]/01 - In The White.mp3
/Users/Stefan/Music/Katatonia {2015} Sanctitude [FLAC ]/01 - In The White.flac
Pre-gap length : 00:02:00
Track gain : -7.65 dB
Peak : 0.979279
CRC32 hash (test run) : 98335347
CRC32 hash : 98335347
CRC32 hash (skip zero) : 09066610
AccurateRip v1 signature : 363579D3
AccurateRip v2 signature : 578DB66D
->Track not present in AccurateRip database.
Statistics
Read error : 0
Jitter error (maybe fixed) : 0
Retry sector count : 0
Damaged sector count : 0
Track 02
Filename : /Users/Stefan/Music/Katatonia {2015} Sanctitude [MP3-V0]/02 - Ambitions.mp3
/Users/Stefan/Music/Katatonia {2015} Sanctitude [FLAC ]/02 - Ambitions.flac
Track gain : -7.31 dB
Peak : 0.978821
CRC32 hash (test run) : DA4EAC0A
CRC32 hash : DA4EAC0A
CRC32 hash (skip zero) : AC5FA706
AccurateRip v1 signature : 83A23F82
AccurateRip v2 signature : D74BFDFE
->Track not present in AccurateRip database.
Statistics
Read error : 0
Jitter error (maybe fixed) : 0
Retry sector count : 0
Damaged sector count : 0
Track 03
Filename : /Users/Stefan/Music/Katatonia {2015} Sanctitude [MP3-V0]/03 - Teargas.mp3
/Users/Stefan/Music/Katatonia {2015} Sanctitude [FLAC ]/03 - Teargas.flac
Track gain : -7.72 dB
Peak : 0.978668
CRC32 hash (test run) : F4821D6B
CRC32 hash : F4821D6B
CRC32 hash (skip zero) : A1D6A6E0
AccurateRip v1 signature : D8BD3E85
AccurateRip v2 signature : 018A8F38
->Track not present in AccurateRip database.
Statistics
Read error : 0
Jitter error (maybe fixed) : 0
Retry sector count : 0
Damaged sector count : 0
Track 04
Filename : /Users/Stefan/Music/Katatonia {2015} Sanctitude [MP3-V0]/04 - Gone.mp3
/Users/Stefan/Music/Katatonia {2015} Sanctitude [FLAC ]/04 - Gone.flac
Track gain : -6.98 dB
Peak : 0.979034
CRC32 hash (test run) : 474D7209
CRC32 hash : 474D7209
CRC32 hash (skip zero) : DDACF0D6
AccurateRip v1 signature : FCB26B41
AccurateRip v2 signature : 2903DAAB
->Track not present in AccurateRip database.
Statistics
Read error : 0
Jitter error (maybe fixed) : 0
Retry sector count : 0
Damaged sector count : 0
Track 05
Filename : /Users/Stefan/Music/Katatonia {2015} Sanctitude [MP3-V0]/05 - A Darkness Coming.mp3
/Users/Stefan/Music/Katatonia {2015} Sanctitude [FLAC ]/05 - A Darkness Coming.flac
Track gain : -5.24 dB
Peak : 0.977814
CRC32 hash (test run) : 81E09A89
CRC32 hash : 81E09A89
CRC32 hash (skip zero) : 119CDBBA
AccurateRip v1 signature : 2C97ABAF
AccurateRip v2 signature : 746CFD76
->Track not present in AccurateRip database.
Statistics
Read error : 0
Jitter error (maybe fixed) : 0
Retry sector count : 0
Damaged sector count : 0
Track 06
Filename : /Users/Stefan/Music/Katatonia {2015} Sanctitude [MP3-V0]/06 - One Year From Now.mp3
/Users/Stefan/Music/Katatonia {2015} Sanctitude [FLAC ]/06 - One Year From Now.flac
Track gain : -5.81 dB
Peak : 0.977844
CRC32 hash (test run) : B7141E5B
CRC32 hash : B7141E5B
CRC32 hash (skip zero) : 8B00763C
AccurateRip v1 signature : 3E46A127
AccurateRip v2 signature : CD4252EF
->Track not present in AccurateRip database.
Statistics
Read error : 0
Jitter error (maybe fixed) : 0
Retry sector count : 0
Damaged sector count : 0
Track 07
Filename : /Users/Stefan/Music/Katatonia {2015} Sanctitude [MP3-V0]/07 - The Racing Heart.mp3
/Users/Stefan/Music/Katatonia {2015} Sanctitude [FLAC ]/07 - The Racing Heart.flac
Track gain : -6.98 dB
Peak : 0.978180
CRC32 hash (test run) : 9DD5DB71
CRC32 hash : 9DD5DB71
CRC32 hash (skip zero) : 2026A8CE
AccurateRip v1 signature : 28313B02
AccurateRip v2 signature : 5A0400DD
->Track not present in AccurateRip database.
Statistics
Read error : 0
Jitter error (maybe fixed) : 0
Retry sector count : 0
Damaged sector count : 0
Track 08
Filename : /Users/Stefan/Music/Katatonia {2015} Sanctitude [MP3-V0]/08 - Tonight's Music.mp3
/Users/Stefan/Music/Katatonia {2015} Sanctitude [FLAC ]/08 - Tonight's Music.flac
Track gain : -5.45 dB
Peak : 0.978149
CRC32 hash (test run) : AE97235F
CRC32 hash : AE97235F
CRC32 hash (skip zero) : 1606ACB5
AccurateRip v1 signature : 9EC1516F
AccurateRip v2 signature : 3B08A779
->Track not present in AccurateRip database.
Statistics
Read error : 0
Jitter error (maybe fixed) : 0
Retry sector count : 0
Damaged sector count : 0
Track 09
Filename : /Users/Stefan/Music/Katatonia {2015} Sanctitude [MP3-V0]/09 - Sleeper.mp3
/Users/Stefan/Music/Katatonia {2015} Sanctitude [FLAC ]/09 - Sleeper.flac
Track gain : -7.45 dB
Peak : 0.977905
CRC32 hash (test run) : F1B1A230
CRC32 hash : F1B1A230
CRC32 hash (skip zero) : 9BE6F3CD
AccurateRip v1 signature : AB88E326
AccurateRip v2 signature : D4D021AC
->Track not present in AccurateRip database.
Statistics
Read error : 0
Jitter error (maybe fixed) : 0
Retry sector count : 0
Damaged sector count : 0
Track 10
Filename : /Users/Stefan/Music/Katatonia {2015} Sanctitude [MP3-V0]/10 - Undo You.mp3
/Users/Stefan/Music/Katatonia {2015} Sanctitude [FLAC ]/10 - Undo You.flac
Track gain : -5.99 dB
Peak : 0.977814
CRC32 hash (test run) : E53D82A3
CRC32 hash : E53D82A3
CRC32 hash (skip zero) : 5EF0ED34
AccurateRip v1 signature : 8D4931CB
AccurateRip v2 signature : 185F98E0
->Track not present in AccurateRip database.
Statistics
Read error : 0
Jitter error (maybe fixed) : 0
Retry sector count : 0
Damaged sector count : 0
Track 11
Filename : /Users/Stefan/Music/Katatonia {2015} Sanctitude [MP3-V0]/11 - Lethean.mp3
/Users/Stefan/Music/Katatonia {2015} Sanctitude [FLAC ]/11 - Lethean.flac
Track gain : -6.60 dB
Peak : 0.978119
CRC32 hash (test run) : 13CEABAA
CRC32 hash : 13CEABAA
CRC32 hash (skip zero) : 49FBB0BD
AccurateRip v1 signature : 18403ABD
AccurateRip v2 signature : 33057412
->Track not present in AccurateRip database.
Statistics
Read error : 0
Jitter error (maybe fixed) : 0
Retry sector count : 0
Damaged sector count : 0
Track 12
Filename : /Users/Stefan/Music/Katatonia {2015} Sanctitude [MP3-V0]/12 - Day.mp3
/Users/Stefan/Music/Katatonia {2015} Sanctitude [FLAC ]/12 - Day.flac
Track gain : -6.42 dB
Peak : 0.978088
CRC32 hash (test run) : D0A44A64
CRC32 hash : D0A44A64
CRC32 hash (skip zero) : 01A0FFE4
AccurateRip v1 signature : 9EC74C99
AccurateRip v2 signature : B45F9E6C
->Track not present in AccurateRip database.
Statistics
Read error : 0
Jitter error (maybe fixed) : 0
Retry sector count : 0
Damaged sector count : 0
Track 13
Filename : /Users/Stefan/Music/Katatonia {2015} Sanctitude [MP3-V0]/13 - Idle Blood.mp3
/Users/Stefan/Music/Katatonia {2015} Sanctitude [FLAC ]/13 - Idle Blood.flac
Track gain : -7.27 dB
Peak : 0.978760
CRC32 hash (test run) : 8FDAFF93
CRC32 hash : 8FDAFF93
CRC32 hash (skip zero) : E47EAE97
AccurateRip v1 signature : E2985386
AccurateRip v2 signature : 8F2132F6
->Track not present in AccurateRip database.
Statistics
Read error : 0
Jitter error (maybe fixed) : 0
Retry sector count : 0
Damaged sector count : 0
Track 14
Filename : /Users/Stefan/Music/Katatonia {2015} Sanctitude [MP3-V0]/14 - Unfurl.mp3
/Users/Stefan/Music/Katatonia {2015} Sanctitude [FLAC ]/14 - Unfurl.flac
Track gain : -6.22 dB
Peak : 0.977997
CRC32 hash (test run) : 3A629476
CRC32 hash : 3A629476
CRC32 hash (skip zero) : F2996ECB
AccurateRip v1 signature : 7A90790A
AccurateRip v2 signature : CD719278
->Track not present in AccurateRip database.
Statistics
Read error : 0
Jitter error (maybe fixed) : 0
Retry sector count : 0
Damaged sector count : 0
Track 15
Filename : /Users/Stefan/Music/Katatonia {2015} Sanctitude [MP3-V0]/15 - Omerta.mp3
/Users/Stefan/Music/Katatonia {2015} Sanctitude [FLAC ]/15 - Omerta.flac
Track gain : -7.44 dB
Peak : 0.978088
CRC32 hash (test run) : C62D1DD4
CRC32 hash : C62D1DD4
CRC32 hash (skip zero) : FF34F772
AccurateRip v1 signature : 956C69BE
AccurateRip v2 signature : 4DF9641C
->Track not present in AccurateRip database.
Statistics
Read error : 0
Jitter error (maybe fixed) : 0
Retry sector count : 0
Damaged sector count : 0
Track 16
Filename : /Users/Stefan/Music/Katatonia {2015} Sanctitude [MP3-V0]/16 - Evidence.mp3
/Users/Stefan/Music/Katatonia {2015} Sanctitude [FLAC ]/16 - Evidence.flac
Track gain : -7.11 dB
Peak : 0.977905
CRC32 hash (test run) : 70957ED4
CRC32 hash : 70957ED4
CRC32 hash (skip zero) : 73EBEEAA
AccurateRip v1 signature : 0CB1514B
AccurateRip v2 signature : 3F962286
->Track not present in AccurateRip database.
Statistics
Read error : 0
Jitter error (maybe fixed) : 0
Retry sector count : 0
Damaged sector count : 0
Track 17
Filename : /Users/Stefan/Music/Katatonia {2015} Sanctitude [MP3-V0]/17 - The One You Are Looking For Is Not Here.mp3
/Users/Stefan/Music/Katatonia {2015} Sanctitude [FLAC ]/17 - The One You Are Looking For Is Not Here.flac
Track gain : -6.98 dB
Peak : 0.977814
CRC32 hash (test run) : 9EF47981
CRC32 hash : 9EF47981
CRC32 hash (skip zero) : BAE94323
AccurateRip v1 signature : 65A610D1
AccurateRip v2 signature : E351B31A
->Track not present in AccurateRip database.
Statistics
Read error : 0
Jitter error (maybe fixed) : 0
Retry sector count : 0
Damaged sector count : 0
No errors occurred
End of status report
-----BEGIN XLD SIGNATURE-----
hcZyQwPyfWOSulSryiOb8Bh3QfMVr6V5q.9V4pVMqFtMZebfx0XZ_k4dYmGAyqyBowH6Qt1Yyy3mKU_gycADYbv6t5V_oD.NELlsJA4
-----END XLD SIGNATURE-----

Содержание индексной карты (.CUE)

TITLE "Sanctitude"
PERFORMER "Katatonia"
REM GENRE "Acoustic"
REM DATE "2015"
REM DISCID F412BD11
REM REPLAYGAIN_ALBUM_GAIN -6.91 dB
REM REPLAYGAIN_ALBUM_PEAK 0.979279
FILE "01 - In The White.flac" WAVE
TRACK 01 AUDIO
TITLE "In The White"
PERFORMER "Katatonia"
SONGWRITER "ANDERS NYSTRГ–M"
ISRC GBCQV1500032
REM REPLAYGAIN_TRACK_GAIN -7.65 dB
REM REPLAYGAIN_TRACK_PEAK 0.979279
INDEX 01 00:00:00
FILE "02 - Ambitions.flac" WAVE
TRACK 02 AUDIO
TITLE "Ambitions"
PERFORMER "Katatonia"
SONGWRITER "ANDERS NYSTRГ–M"
ISRC GBCQV1500033
REM REPLAYGAIN_TRACK_GAIN -7.31 dB
REM REPLAYGAIN_TRACK_PEAK 0.978821
INDEX 01 00:00:00
FILE "03 - Teargas.flac" WAVE
TRACK 03 AUDIO
TITLE "Teargas"
PERFORMER "Katatonia"
SONGWRITER "ANDERS NYSTRГ–M"
ISRC GBCQV1500034
REM REPLAYGAIN_TRACK_GAIN -7.72 dB
REM REPLAYGAIN_TRACK_PEAK 0.978668
INDEX 01 00:00:00
FILE "04 - Gone.flac" WAVE
TRACK 04 AUDIO
TITLE "Gone"
PERFORMER "Katatonia"
SONGWRITER "ANDERS NYSTRГ–M"
ISRC GBCQV1500035
REM REPLAYGAIN_TRACK_GAIN -6.98 dB
REM REPLAYGAIN_TRACK_PEAK 0.979034
INDEX 01 00:00:00
FILE "05 - A Darkness Coming.flac" WAVE
TRACK 05 AUDIO
TITLE "A Darkness Coming"
PERFORMER "Katatonia"
SONGWRITER "ANDERS NYSTRГ–M"
ISRC GBCQV1500036
REM REPLAYGAIN_TRACK_GAIN -5.24 dB
REM REPLAYGAIN_TRACK_PEAK 0.977814
INDEX 01 00:00:00
FILE "06 - One Year From Now.flac" WAVE
TRACK 06 AUDIO
TITLE "One Year From Now"
PERFORMER "Katatonia"
SONGWRITER "ANDERS NYSTRГ–M"
ISRC GBCQV1500037
REM REPLAYGAIN_TRACK_GAIN -5.81 dB
REM REPLAYGAIN_TRACK_PEAK 0.977844
INDEX 01 00:00:00
FILE "07 - The Racing Heart.flac" WAVE
TRACK 07 AUDIO
TITLE "The Racing Heart"
PERFORMER "Katatonia"
SONGWRITER "ANDERS NYSTRГ–M"
ISRC GBCQV1500038
REM REPLAYGAIN_TRACK_GAIN -6.98 dB
REM REPLAYGAIN_TRACK_PEAK 0.978180
INDEX 01 00:00:00
FILE "08 - Tonight's Music.flac" WAVE
TRACK 08 AUDIO
TITLE "Tonight's Music"
PERFORMER "Katatonia"
SONGWRITER "ANDERS NYSTRГ–M"
ISRC GBCQV1500039
REM REPLAYGAIN_TRACK_GAIN -5.45 dB
REM REPLAYGAIN_TRACK_PEAK 0.978149
INDEX 01 00:00:00
FILE "09 - Sleeper.flac" WAVE
TRACK 09 AUDIO
TITLE "Sleeper"
PERFORMER "Katatonia"
SONGWRITER "ANDERS NYSTRГ–M"
ISRC GBCQV1500040
REM REPLAYGAIN_TRACK_GAIN -7.45 dB
REM REPLAYGAIN_TRACK_PEAK 0.977905
INDEX 01 00:00:00
FILE "10 - Undo You.flac" WAVE
TRACK 10 AUDIO
TITLE "Undo You"
PERFORMER "Katatonia"
SONGWRITER "ANDERS NYSTRГ–M"
ISRC GBCQV1500041
REM REPLAYGAIN_TRACK_GAIN -5.99 dB
REM REPLAYGAIN_TRACK_PEAK 0.977814
INDEX 01 00:00:00
FILE "11 - Lethean.flac" WAVE
TRACK 11 AUDIO
TITLE "Lethean"
PERFORMER "Katatonia"
SONGWRITER "ANDERS NYSTRГ–M"
ISRC GBCQV1500042
REM REPLAYGAIN_TRACK_GAIN -6.60 dB
REM REPLAYGAIN_TRACK_PEAK 0.978119
INDEX 01 00:00:00
FILE "12 - Day.flac" WAVE
TRACK 12 AUDIO
TITLE "Day"
PERFORMER "Katatonia"
SONGWRITER "ANDERS NYSTRГ–M"
ISRC GBCQV1500043
REM REPLAYGAIN_TRACK_GAIN -6.42 dB
REM REPLAYGAIN_TRACK_PEAK 0.978088
INDEX 01 00:00:00
FILE "13 - Idle Blood.flac" WAVE
TRACK 13 AUDIO
TITLE "Idle Blood"
PERFORMER "Katatonia"
SONGWRITER "ANDERS NYSTRГ–M"
ISRC GBCQV1500044
REM REPLAYGAIN_TRACK_GAIN -7.27 dB
REM REPLAYGAIN_TRACK_PEAK 0.978760
INDEX 01 00:00:00
FILE "14 - Unfurl.flac" WAVE
TRACK 14 AUDIO
TITLE "Unfurl"
PERFORMER "Katatonia"
SONGWRITER "ANDERS NYSTRГ–M"
ISRC GBCQV1500045
REM REPLAYGAIN_TRACK_GAIN -6.22 dB
REM REPLAYGAIN_TRACK_PEAK 0.977997
INDEX 01 00:00:00
FILE "15 - Omerta.flac" WAVE
TRACK 15 AUDIO
TITLE "Omerta"
PERFORMER "Katatonia"
SONGWRITER "ANDERS NYSTRГ–M"
ISRC GBCQV1500046
REM REPLAYGAIN_TRACK_GAIN -7.44 dB
REM REPLAYGAIN_TRACK_PEAK 0.978088
INDEX 01 00:00:00
FILE "16 - Evidence.flac" WAVE
TRACK 16 AUDIO
TITLE "Evidence"
PERFORMER "Katatonia"
SONGWRITER "ANDERS NYSTRГ–M"
ISRC GBCQV1500047
REM REPLAYGAIN_TRACK_GAIN -7.11 dB
REM REPLAYGAIN_TRACK_PEAK 0.977905
INDEX 01 00:00:00
FILE "17 - The One You Are Looking For Is Not Here.flac" WAVE
TRACK 17 AUDIO
TITLE "The One You Are Looking For Is Not Here"
PERFORMER "Katatonia"
SONGWRITER "ANDERS NYSTRГ–M"
ISRC GBCQV1500048
REM REPLAYGAIN_TRACK_GAIN -6.98 dB
REM REPLAYGAIN_TRACK_PEAK 0.977814
INDEX 01 00:00:00
Спасибо mart0372 за помощь .

2016 - The Fall of Hearts ; 01:12:18

Страна-производитель диска (релиза): UK
Издатель (лейбл): Peaceville Records
Номер по каталогу: CDVILEF553
Аудиокодек: FLAC (*.flac)
Тип рипа: image+.cue
Битрейт аудио: lossless
Источник (релизер): mxh ( спасибо )
Треклист:
1. Takeover [7:08]
2. Serein [4:46]
3. Old Heart Falls [4:22]
4. Decima [4:46]
5. Sanction [5:06]
6. Residual [6:54]
7. Serac [7:25]
8. Last Song Before the Fade [5:01]
9. Shifts [4:54]
10. The Night subscriber [6:10]
11. Pale Flag [4:23]
12. Passer [6:31]
13. Vakaren (bonus) [4:54]

Лог создания рипа

Exact Audio Copy V0.99 prebeta 5 from 4. May 2009
EAC extraction logfile from 26. May 2016, 18:55
Katatonia / The Fall Of Hearts
Used drive : Optiarc DVD RW AD-5260S Adapter: 4 ID: 0
Read mode : Secure
Utilize accurate stream : Yes
Defeat audio cache : Yes
Make use of C2 pointers : No
Read offset correction : 48
Overread into Lead-In and Lead-Out : No
Fill up missing offset samples with silence : Yes
Delete leading and trailing silent blocks : No
Null samples used in CRC calculations : Yes
Used interface : Native Win32 interface for Win NT & 2000
Used output format : Internal WAV Routines
Sample format : 44.100 Hz; 16 Bit; Stereo
TOC of the extracted CD
Track | Start | Length | Start sector | End sector
---------------------------------------------------------
1 | 0:00.00 | 7:06.51 | 0 | 32000
2 | 7:06.51 | 4:46.19 | 32001 | 53469
3 | 11:52.70 | 4:22.38 | 53470 | 73157
4 | 16:15.33 | 4:46.72 | 73158 | 94679
5 | 21:02.30 | 5:06.59 | 94680 | 117688
6 | 26:09.14 | 6:54.13 | 117689 | 148751
7 | 33:03.27 | 7:25.20 | 148752 | 182146
8 | 40:28.47 | 5:01.17 | 182147 | 204738
9 | 45:29.64 | 4:54.31 | 204739 | 226819
10 | 50:24.20 | 6:10.30 | 226820 | 254599
11 | 56:34.50 | 4:23.47 | 254600 | 274371
12 | 60:58.22 | 6:25.22 | 274372 | 303268
13 | 67:23.44 | 4:54.31 | 303269 | 325349
Range status and errors
Selected range
Filename D:\Temp\Katatonia - The Fall Of Hearts.wav
Peak level 100.0 %
Range quality 100.0 %
Copy CRC B3509000
Copy OK
No errors occurred
AccurateRip summary
Track 1 not present in database
Track 2 not present in database
Track 3 not present in database
Track 4 not present in database
Track 5 not present in database
Track 6 not present in database
Track 7 not present in database
Track 8 not present in database
Track 9 not present in database
Track 10 not present in database
Track 11 not present in database
Track 12 not present in database
Track 13 not present in database
None of the tracks are present in the AccurateRip database
End of status report

2016 - The Fall Of Hearts (Japanese Deluxe Ed.) ; 01:16:29

Страна-производитель диска (релиза): Japan
Издатель (лейбл): Chaos Reigns / Ward Records / Peaceville
Номер по каталогу: GQCS-90168
Аудиокодек: FLAC (*.flac)
Тип рипа: image+.cue
Битрейт аудио: lossless
Источник (релизер): LordSeth ( спасибо )
Треклист:
01. Takeover 07:06
02. Serein 04:46
03. Old Heart Falls 04:22
04. Decima 04:46
05. Sanction 05:06
06. Residual 06:54
07. Serac 07:25
08. Last Song Before the Fade 05:01
09. Shifts 04:54
10. The Night Subscriber 06:10
11. Pale Flag 04:23
12. Passer 06:25
13. Vakaren 04:47
Bonus track for Japan:
14. Night Comes Down (Judas Priest cover) 04:18

Лог создания рипа

Exact Audio Copy V1.3 from 2. September 2016
EAC extraction logfile from 26. August 2017, 0:52
Katatonia / The Fall Of Hearts
Used drive : ASUS BW-16D1HT Adapter: 0 ID: 0
Read mode : Secure
Utilize accurate stream : Yes
Defeat audio cache : Yes
Make use of C2 pointers : No
Read offset correction : 6
Overread into Lead-In and Lead-Out : No
Fill up missing offset samples with silence : Yes
Delete leading and trailing silent blocks : No
Null samples used in CRC calculations : Yes
Used interface : Installed external ASPI interface
Used output format : User Defined Encoder
Selected bitrate : 896 kBit/s
Quality : High
Add ID3 tag : No
Command line compressor : C:\Program Files\Flac\flac.exe
Additional command line options : -6 -V %source%
TOC of the extracted CD
Track | Start | Length | Start sector | End sector
---------------------------------------------------------
1 | 0:00.00 | 7:06.51 | 0 | 32000
2 | 7:06.51 | 4:46.19 | 32001 | 53469
3 | 11:52.70 | 4:22.38 | 53470 | 73157
4 | 16:15.33 | 4:46.72 | 73158 | 94679
5 | 21:02.30 | 5:06.59 | 94680 | 117688
6 | 26:09.14 | 6:54.13 | 117689 | 148751
7 | 33:03.27 | 7:25.20 | 148752 | 182146
8 | 40:28.47 | 5:01.17 | 182147 | 204738
9 | 45:29.64 | 4:54.31 | 204739 | 226819
10 | 50:24.20 | 6:10.30 | 226820 | 254599
11 | 56:34.50 | 4:23.47 | 254600 | 274371
12 | 60:58.22 | 6:25.22 | 274372 | 303268
13 | 67:23.44 | 4:47.27 | 303269 | 324820
14 | 72:10.71 | 4:18.04 | 324821 | 344174
Range status and errors
Selected range
Filename C:\Trash\Katatonia - The Fall Of Hearts\Katatonia - The Fall Of Hearts.wav
Peak level 100.0 %
Extraction speed 8.1 X
Range quality 100.0 %
Test CRC FB6EA2E4
Copy CRC FB6EA2E4
Copy OK
No errors occurred
AccurateRip summary
Track 1 not present in database
Track 2 not present in database
Track 3 not present in database
Track 4 not present in database
Track 5 not present in database
Track 6 not present in database
Track 7 not present in database
Track 8 not present in database
Track 9 not present in database
Track 10 not present in database
Track 11 not present in database
Track 12 not present in database
Track 13 not present in database
Track 14 not present in database
None of the tracks are present in the AccurateRip database
End of status report
---- CUETools DB Plugin V2.1.6
[CTDB TOCID: LP0PjlmK09UP0Mid0GM6QJpsBV0-] found
Submit result: LP0PjlmK09UP0Mid0GM6QJpsBV0- has been confirmed
Track | CTDB Status
1 | (13/13) Accurately ripped
2 | (13/13) Accurately ripped
3 | (13/13) Accurately ripped
4 | (13/13) Accurately ripped
5 | (13/13) Accurately ripped
6 | (13/13) Accurately ripped
7 | (13/13) Accurately ripped
8 | (13/13) Accurately ripped
9 | (13/13) Accurately ripped
10 | (13/13) Accurately ripped
11 | (13/13) Accurately ripped
12 | (13/13) Accurately ripped
13 | (13/13) Accurately ripped
14 | (13/13) Accurately ripped
==== Log checksum 6BFD07CEBEC54FC8EE81892814DD9BC68980C5CCE34979BC67DD804D288D12F9 ====

2017 - The Great Cold Distance ( 10th Anniversary Ed.) ; 00:51:23 + 00:31:34 + 00:51:43

Аудиокодек: FLAC (*.flac)
Тип рипа: track+.cue
Битрейт аудио: lossless
Источник (релизер): сеть ( mediaboom )

CD 1 - The Great Cold Distance

Треклист:
01. Leaders
02. Deliberation
03. Soil's Song
04. My Twin
05. Consternation
06. Follower
07. Rusted
08. Increase
09. July
10. In the White
11. The Itch
12. Journey Through Pressure

Лог создания рипа

Exact Audio Copy V1.3 from 2. September 2016
EAC extraction logfile from 7. February 2017, 18:38
Katatonia / The Great Cold Distance
Used drive : HL-DT-STDVD+-RW GU90N Adapter: 1 ID: 0
Read mode : Secure
Utilize accurate stream : Yes
Defeat audio cache : Yes
Make use of C2 pointers : No
Read offset correction : 102
Overread into Lead-In and Lead-Out : No
Fill up missing offset samples with silence : Yes
Delete leading and trailing silent blocks : No
Null samples used in CRC calculations : Yes
Used interface : Native Win32 interface for Win NT & 2000
Gap handling : Appended to previous track
Used output format : User Defined Encoder
Selected bitrate : 1024 kBit/s
Quality : High
Add ID3 tag : No
Command line compressor : C:\Program Files (x86)\FLAC Frontend\tools\flac.exe
Additional command line options : -8 -e -p -V -T "ARTIST=%artist%" -T "TITLE=%title%" -T "ALBUM=%albumtitle%" -T "DATE=%year%" -T "TRACKNUMBER=%tracknr%" -T "GENRE=%genre%" -T "PERFORMER=%albuminterpret%" -T "COMPOSER=%composer%" %haslyrics%--tag-from-file=LYRICS="%lyricsfile%"%haslyrics% -T "ALBUMARTIST=%albumartist%" -T "DISCNUMBER=%cdnumber%" -T "TOTALDISCS=%totalcds%" -T "TOTALTRACKS=%numtracks%" -T "COMMENT=%comment%" %source% -o %dest%
TOC of the extracted CD
Track | Start | Length | Start sector | End sector
---------------------------------------------------------
1 | 0:00.00 | 4:20.43 | 0 | 19542
2 | 4:20.43 | 3:59.42 | 19543 | 37509
3 | 8:20.10 | 4:12.17 | 37510 | 56426
4 | 12:32.27 | 3:41.05 | 56427 | 73006
5 | 16:13.32 | 3:51.35 | 73007 | 90366
6 | 20:04.67 | 4:46.16 | 90367 | 111832
7 | 24:51.08 | 4:21.06 | 111833 | 131413
8 | 29:12.14 | 4:20.04 | 131414 | 150917
9 | 33:32.18 | 4:45.21 | 150918 | 172313
10 | 38:17.39 | 4:53.10 | 172314 | 194298
11 | 43:10.49 | 4:20.37 | 194299 | 213835
12 | 47:31.11 | 4:13.43 | 213836 | 232853
Track 1
Filename C:\EAC Rips\Katatonia - [2017] The Great Cold Distance (10th Anniversary Edition) {EBVILE015} - FLAC\Disc 1 - The Great Cold Distance\01 Leaders.wav
Pre-gap length 0:00:02.00
Peak level 91.6 %
Extraction speed 2.2 X
Track quality 99.9 %
Test CRC 04E32B9C
Copy CRC 04E32B9C
Track not present in AccurateRip database
Copy OK
Track 2
Filename C:\EAC Rips\Katatonia - [2017] The Great Cold Distance (10th Anniversary Edition) {EBVILE015} - FLAC\Disc 1 - The Great Cold Distance\02 Deliberation.wav
Pre-gap length 0:00:02.17
Peak level 91.2 %
Extraction speed 2.8 X
Track quality 100.0 %
Test CRC A235595E
Copy CRC A235595E
Track not present in AccurateRip database
Copy OK
Track 3
Filename C:\EAC Rips\Katatonia - [2017] The Great Cold Distance (10th Anniversary Edition) {EBVILE015} - FLAC\Disc 1 - The Great Cold Distance\03 Soil's Song.wav
Pre-gap length 0:00:01.48
Peak level 91.5 %
Extraction speed 3.2 X
Track quality 100.0 %
Test CRC BDA7C59C
Copy CRC BDA7C59C
Track not present in AccurateRip database
Copy OK
Track 4
Filename C:\EAC Rips\Katatonia - [2017] The Great Cold Distance (10th Anniversary Edition) {EBVILE015} - FLAC\Disc 1 - The Great Cold Distance\04 My Twin.wav
Pre-gap length 0:00:02.68
Peak level 91.7 %
Extraction speed 2.7 X
Track quality 99.9 %
Test CRC 5D63FFED
Copy CRC 5D63FFED
Track not present in AccurateRip database
Copy OK
Track 5
Filename C:\EAC Rips\Katatonia - [2017] The Great Cold Distance (10th Anniversary Edition) {EBVILE015} - FLAC\Disc 1 - The Great Cold Distance\05 Consternation.wav
Pre-gap length 0:00:01.52
Peak level 91.5 %
Extraction speed 3.6 X
Track quality 100.0 %
Test CRC 1276ACC7
Copy CRC 1276ACC7
Track not present in AccurateRip database
Copy OK
Track 6
Filename C:\EAC Rips\Katatonia - [2017] The Great Cold Distance (10th Anniversary Edition) {EBVILE015} - FLAC\Disc 1 - The Great Cold Distance\06 Follower.wav
Pre-gap length 0:00:02.04
Peak level 91.7 %
Extraction speed 3.8 X
Track quality 100.0 %
Test CRC 9D3D9CF7
Copy CRC 9D3D9CF7
Track not present in AccurateRip database
Copy OK
Track 7
Filename C:\EAC Rips\Katatonia - [2017] The Great Cold Distance (10th Anniversary Edition) {EBVILE015} - FLAC\Disc 1 - The Great Cold Distance\07 Rusted.wav
Pre-gap length 0:00:02.68
Peak level 91.7 %
Extraction speed 4.0 X
Track quality 100.0 %
Test CRC 9B875746
Copy CRC 9B875746
Track not present in AccurateRip database
Copy OK
Track 8
Filename C:\EAC Rips\Katatonia - [2017] The Great Cold Distance (10th Anniversary Edition) {EBVILE015} - FLAC\Disc 1 - The Great Cold Distance\08 Increase.wav
Pre-gap length 0:00:02.20
Peak level 91.7 %
Extraction speed 4.0 X
Track quality 100.0 %
Test CRC A212C2A4
Copy CRC A212C2A4
Track not present in AccurateRip database
Copy OK
Track 9
Filename C:\EAC Rips\Katatonia - [2017] The Great Cold Distance (10th Anniversary Edition) {EBVILE015} - FLAC\Disc 1 - The Great Cold Distance\09 July.wav
Pre-gap length 0:00:02.01
Peak level 91.7 %
Extraction speed 4.2 X
Track quality 100.0 %
Test CRC 305754CB
Copy CRC 305754CB
Track not present in AccurateRip database
Copy OK
Track 10
Filename C:\EAC Rips\Katatonia - [2017] The Great Cold Distance (10th Anniversary Edition) {EBVILE015} - FLAC\Disc 1 - The Great Cold Distance\10 In the White.wav
Pre-gap length 0:00:01.50
Peak level 91.5 %
Extraction speed 3.7 X
Track quality 99.9 %
Test CRC FFB68867
Copy CRC FFB68867
Track not present in AccurateRip database
Copy OK
Track 11
Filename C:\EAC Rips\Katatonia - [2017] The Great Cold Distance (10th Anniversary Edition) {EBVILE015} - FLAC\Disc 1 - The Great Cold Distance\11 The Itch.wav
Pre-gap length 0:00:01.13
Peak level 91.7 %
Extraction speed 4.5 X
Track quality 100.0 %
Test CRC 72709B65
Copy CRC 72709B65
Track not present in AccurateRip database
Copy OK
Track 12
Filename C:\EAC Rips\Katatonia - [2017] The Great Cold Distance (10th Anniversary Edition) {EBVILE015} - FLAC\Disc 1 - The Great Cold Distance\12 Journey Through Pressure.wav
Pre-gap length 0:00:02.49
Peak level 91.7 %
Extraction speed 4.6 X
Track quality 100.0 %
Test CRC EB27D178
Copy CRC EB27D178
Track not present in AccurateRip database
Copy OK
None of the tracks are present in the AccurateRip database
No errors occurred
End of status report
---- CUETools DB Plugin V2.1.6
[CTDB TOCID: IhzDKG82mnp3RJxa9Oaqg.0nVO8-] found
Submit result: IhzDKG82mnp3RJxa9Oaqg.0nVO8- has been confirmed
Track | CTDB Status
1 | (2/2) Accurately ripped
2 | (2/2) Accurately ripped
3 | (2/2) Accurately ripped
4 | (2/2) Accurately ripped
5 | (2/2) Accurately ripped
6 | (2/2) Accurately ripped
7 | (2/2) Accurately ripped
8 | (2/2) Accurately ripped
9 | (2/2) Accurately ripped
10 | (2/2) Accurately ripped
11 | (2/2) Accurately ripped
12 | (2/2) Accurately ripped
==== Log checksum BB3184DB7A201F777156A332E10BB1BD2D93C378DCDFFB42103A88146B6E3574 ====

Содержание индексной карты (.CUE):

REM GENRE "Depressive Rock/Metal"
REM DATE 2017
REM DISCID A40C200C
REM COMMENT "ExactAudioCopy v1.3"
PERFORMER "Katatonia"
TITLE "The Great Cold Distance"
REM COMPOSER ""
FILE "01 Leaders.wav" WAVE
TRACK 01 AUDIO
TITLE "Leaders"
PERFORMER "Katatonia"
REM COMPOSER ""
ISRC GBCQV0501167
INDEX 01 00:00:00
TRACK 02 AUDIO
TITLE "Deliberation"
PERFORMER "Katatonia"
REM COMPOSER ""
ISRC GBCQV0501168
INDEX 00 04:18:30
FILE "02 Deliberation.wav" WAVE
INDEX 01 00:00:00
TRACK 03 AUDIO
TITLE "Soil's Song"
PERFORMER "Katatonia"
REM COMPOSER ""
ISRC GBCQV0501169
INDEX 00 03:58:06
FILE "03 Soil's Song.wav" WAVE
INDEX 01 00:00:00
TRACK 04 AUDIO
TITLE "My Twin"
PERFORMER "Katatonia"
REM COMPOSER ""
ISRC GBCQV0501170
INDEX 00 04:09:41
FILE "04 My Twin.wav" WAVE
INDEX 01 00:00:00
TRACK 05 AUDIO
TITLE "Consternation"
PERFORMER "Katatonia"
REM COMPOSER ""
ISRC GBCQV0501171
INDEX 00 03:39:41
FILE "05 Consternation.wav" WAVE
INDEX 01 00:00:00
TRACK 06 AUDIO
TITLE "Follower"
PERFORMER "Katatonia"
REM COMPOSER ""
ISRC GBCQV0501172
INDEX 00 03:49:32
FILE "06 Follower.wav" WAVE
INDEX 01 00:00:00
TRACK 07 AUDIO
TITLE "Rusted"
PERFORMER "Katatonia"
REM COMPOSER ""
ISRC GBCQV0501173
INDEX 00 04:43:40
FILE "07 Rusted.wav" WAVE
INDEX 01 00:00:00
TRACK 08 AUDIO
TITLE "Increase"
PERFORMER "Katatonia"
REM COMPOSER ""
ISRC GBCQV0501174
INDEX 00 04:18:66
FILE "08 Increase.wav" WAVE
INDEX 01 00:00:00
TRACK 09 AUDIO
TITLE "July"
PERFORMER "Katatonia"
REM COMPOSER ""
ISRC GBCQV0501175
INDEX 00 04:18:03
FILE "09 July.wav" WAVE
INDEX 01 00:00:00
TRACK 10 AUDIO
TITLE "In the White"
PERFORMER "Katatonia"
REM COMPOSER ""
ISRC GBCQV0501176
INDEX 00 04:43:58
FILE "10 In the White.wav" WAVE
INDEX 01 00:00:00
TRACK 11 AUDIO
TITLE "The Itch"
PERFORMER "Katatonia"
REM COMPOSER ""
ISRC GBCQV0501177
INDEX 00 04:52:00
FILE "11 The Itch.wav" WAVE
INDEX 01 00:00:00
TRACK 12 AUDIO
TITLE "Journey Through Pressure"
PERFORMER "Katatonia"
REM COMPOSER ""
ISRC GBCQV0501178
INDEX 00 04:18:00
FILE "12 Journey Through Pressure.wav" WAVE
INDEX 01 00:00:00

CD 2 - B-Sides & Extras

Треклист:
01. My Twin (Opium Dub version)
02. Displaced
03. Dissolving Bonds
04. In The White (Urban Dub)
05. Code Against The Code
06. Soil's Song (Krister Linder 2012 remix)
07. Unfurl

Лог создания рипа

Exact Audio Copy V1.3 from 2. September 2016
EAC extraction logfile from 7. February 2017, 19:06
Katatonia / The Great Cold Distance - B-Sides & Extras
Used drive : HL-DT-STDVD+-RW GU90N Adapter: 1 ID: 0
Read mode : Secure
Utilize accurate stream : Yes
Defeat audio cache : Yes
Make use of C2 pointers : No
Read offset correction : 102
Overread into Lead-In and Lead-Out : No
Fill up missing offset samples with silence : Yes
Delete leading and trailing silent blocks : No
Null samples used in CRC calculations : Yes
Used interface : Native Win32 interface for Win NT & 2000
Gap handling : Appended to previous track
Used output format : User Defined Encoder
Selected bitrate : 1024 kBit/s
Quality : High
Add ID3 tag : No
Command line compressor : C:\Program Files (x86)\FLAC Frontend\tools\flac.exe
Additional command line options : -8 -e -p -V -T "ARTIST=%artist%" -T "TITLE=%title%" -T "ALBUM=%albumtitle%" -T "DATE=%year%" -T "TRACKNUMBER=%tracknr%" -T "GENRE=%genre%" -T "PERFORMER=%albuminterpret%" -T "COMPOSER=%composer%" %haslyrics%--tag-from-file=LYRICS="%lyricsfile%"%haslyrics% -T "ALBUMARTIST=%albumartist%" -T "DISCNUMBER=%cdnumber%" -T "TOTALDISCS=%totalcds%" -T "TOTALTRACKS=%numtracks%" -T "COMMENT=%comment%" %source% -o %dest%
TOC of the extracted CD
Track | Start | Length | Start sector | End sector
---------------------------------------------------------
1 | 0:00.00 | 4:17.58 | 0 | 19332
2 | 4:17.58 | 5:16.34 | 19333 | 43066
3 | 9:34.17 | 3:43.34 | 43067 | 59825
4 | 13:17.51 | 5:27.29 | 59826 | 84379
5 | 18:45.05 | 3:31.08 | 84380 | 100212
6 | 22:16.13 | 4:43.05 | 100213 | 121442
7 | 26:59.18 | 4:48.39 | 121443 | 143081
Track 1
Filename C:\EAC Rips\Katatonia - [2017] The Great Cold Distance (10th Anniversary Edition) {EBVILE015} - FLAC\Disc 2 - B-Sides & Extras\01 My Twin (Opium Dub version).wav
Pre-gap length 0:00:02.00
Peak level 91.6 %
Extraction speed 2.6 X
Track quality 100.0 %
Test CRC 07FEE314
Copy CRC 07FEE314
Track not present in AccurateRip database
Copy OK
Track 2
Filename C:\EAC Rips\Katatonia - [2017] The Great Cold Distance (10th Anniversary Edition) {EBVILE015} - FLAC\Disc 2 - B-Sides & Extras\02 Displaced.wav
Pre-gap length 0:00:02.60
Peak level 91.7 %
Extraction speed 3.1 X
Track quality 100.0 %
Test CRC A9DCB278
Copy CRC A9DCB278
Track not present in AccurateRip database
Copy OK
Track 3
Filename C:\EAC Rips\Katatonia - [2017] The Great Cold Distance (10th Anniversary Edition) {EBVILE015} - FLAC\Disc 2 - B-Sides & Extras\03 Dissolving Bonds.wav
Pre-gap length 0:00:02.01
Peak level 91.6 %
Extraction speed 2.6 X
Track quality 99.9 %
Test CRC 5649896A
Copy CRC 5649896A
Track not present in AccurateRip database
Copy OK
Track 4
Filename C:\EAC Rips\Katatonia - [2017] The Great Cold Distance (10th Anniversary Edition) {EBVILE015} - FLAC\Disc 2 - B-Sides & Extras\04 In The White (Urban Dub).wav
Pre-gap length 0:00:02.00
Peak level 90.2 %
Extraction speed 3.6 X
Track quality 100.0 %
Test CRC 3226ADBD
Copy CRC 3226ADBD
Track not present in AccurateRip database
Copy OK
Track 5
Filename C:\EAC Rips\Katatonia - [2017] The Great Cold Distance (10th Anniversary Edition) {EBVILE015} - FLAC\Disc 2 - B-Sides & Extras\05 Code Against The Code.wav
Pre-gap length 0:00:02.21
Peak level 91.6 %
Extraction speed 3.6 X
Track quality 100.0 %
Test CRC E5E60B8C
Copy CRC E5E60B8C
Track not present in AccurateRip database
Copy OK
Track 6
Filename C:\EAC Rips\Katatonia - [2017] The Great Cold Distance (10th Anniversary Edition) {EBVILE015} - FLAC\Disc 2 - B-Sides & Extras\06 Soil's Song (Krister Linder 2012 remix).wav
Pre-gap length 0:00:02.26
Peak level 91.4 %
Extraction speed 3.9 X
Track quality 100.0 %
Test CRC 10BF2684
Copy CRC 10BF2684
Track not present in AccurateRip database
Copy OK
Track 7
Filename C:\EAC Rips\Katatonia - [2017] The Great Cold Distance (10th Anniversary Edition) {EBVILE015} - FLAC\Disc 2 - B-Sides & Extras\07 Unfurl.wav
Pre-gap length 0:00:02.33
Peak level 78.2 %
Extraction speed 3.5 X
Track quality 99.9 %
Test CRC 46194A8B
Copy CRC 46194A8B
Track not present in AccurateRip database
Copy OK
None of the tracks are present in the AccurateRip database
No errors occurred
End of status report
---- CUETools DB Plugin V2.1.6
[CTDB TOCID: FAYfOzNbOwRamU3BtKHdKY7hSQY-] found
Submit result: FAYfOzNbOwRamU3BtKHdKY7hSQY- has been confirmed
Track | CTDB Status
1 | (3/3) Accurately ripped
2 | (3/3) Accurately ripped
3 | (3/3) Accurately ripped
4 | (3/3) Accurately ripped
5 | (3/3) Accurately ripped
6 | (3/3) Accurately ripped
7 | (3/3) Accurately ripped
==== Log checksum 0A5381EB68A5987E723905722B1F2EE260672F35022F48D1E8AB2E1F205E5A9B ====

Содержание индексной карты (.CUE):

REM GENRE Metal
REM DATE 2017
REM DISCID 61077307
REM COMMENT "ExactAudioCopy v1.3"
PERFORMER "Katatonia"
TITLE "The Great Cold Distance - B-Sides & Extras"
REM COMPOSER ""
FILE "01 My Twin (Opium Dub version).wav" WAVE
TRACK 01 AUDIO
TITLE "My Twin (Opium Dub version)"
PERFORMER "Katatonia"
REM COMPOSER ""
ISRC GBCQV0501179
INDEX 01 00:00:00
TRACK 02 AUDIO
TITLE "Displaced"
PERFORMER "Katatonia"
REM COMPOSER ""
ISRC GBCQV0501180
INDEX 00 04:15:13
FILE "02 Displaced.wav" WAVE
INDEX 01 00:00:00
TRACK 03 AUDIO
TITLE "Dissolving Bonds"
PERFORMER "Katatonia"
REM COMPOSER ""
ISRC GBCQV0501181
INDEX 00 05:14:33
FILE "03 Dissolving Bonds.wav" WAVE
INDEX 01 00:00:00
TRACK 04 AUDIO
TITLE "In The White (Urban Dub)"
PERFORMER "Katatonia"
REM COMPOSER ""
ISRC GBCQV0600079
INDEX 00 03:41:34
FILE "04 In The White (Urban Dub).wav" WAVE
INDEX 01 00:00:00
TRACK 05 AUDIO
TITLE "Code Against The Code"
PERFORMER "Katatonia"
REM COMPOSER ""
ISRC GBCQV0600078
INDEX 00 05:25:13
FILE "05 Code Against The Code.wav" WAVE
INDEX 01 00:00:00
TRACK 06 AUDIO
TITLE "Soil's Song (Krister Linder 2012 remix)"
PERFORMER "Katatonia"
REM COMPOSER ""
ISRC GBCQV0700013
INDEX 00 03:28:63
FILE "06 Soil's Song (Krister Linder 2012 remix).wav" WAVE
INDEX 01 00:00:00
TRACK 07 AUDIO
TITLE "Unfurl"
PERFORMER "Katatonia"
REM COMPOSER ""
ISRC GBCQV0700014
INDEX 00 04:40:55
FILE "07 Unfurl.wav" WAVE
INDEX 01 00:00:00

CD 3 - Live in Bulgaria with the Plovdiv Philharmonic Orchestra

Треклист:
01. Leaders
02. Deliberation
03. Soil's Song
04. My Twin
05. Consternation
06. Follower
07. Rusted
08. Increase
09. July
10. In the White
11. The White
12. Journey Through Pressure

Лог создания рипа

Exact Audio Copy V1.3 from 2. September 2016
EAC extraction logfile from 7. February 2017, 19:47
Katatonia / The Great Cold Distance - Live in Bulgaria with the Plovdiv Philharmonic Orchestra
Used drive : HL-DT-STDVD+-RW GU90N Adapter: 1 ID: 0
Read mode : Secure
Utilize accurate stream : Yes
Defeat audio cache : Yes
Make use of C2 pointers : No
Read offset correction : 102
Overread into Lead-In and Lead-Out : No
Fill up missing offset samples with silence : Yes
Delete leading and trailing silent blocks : No
Null samples used in CRC calculations : Yes
Used interface : Native Win32 interface for Win NT & 2000
Gap handling : Appended to previous track
Used output format : User Defined Encoder
Selected bitrate : 1024 kBit/s
Quality : High
Add ID3 tag : No
Command line compressor : C:\Program Files (x86)\FLAC Frontend\tools\flac.exe
Additional command line options : -8 -e -p -V -T "ARTIST=%artist%" -T "TITLE=%title%" -T "ALBUM=%albumtitle%" -T "DATE=%year%" -T "TRACKNUMBER=%tracknr%" -T "GENRE=%genre%" -T "PERFORMER=%albuminterpret%" -T "COMPOSER=%composer%" %haslyrics%--tag-from-file=LYRICS="%lyricsfile%"%haslyrics% -T "ALBUMARTIST=%albumartist%" -T "DISCNUMBER=%cdnumber%" -T "TOTALDISCS=%totalcds%" -T "TOTALTRACKS=%numtracks%" -T "COMMENT=%comment%" %source% -o %dest%
TOC of the extracted CD
Track | Start | Length | Start sector | End sector
---------------------------------------------------------
1 | 0:00.00 | 4:42.55 | 0 | 21204
2 | 4:42.55 | 4:16.34 | 21205 | 40438
3 | 8:59.14 | 4:38.26 | 40439 | 61314
4 | 13:37.40 | 4:01.37 | 61315 | 79426
5 | 17:39.02 | 4:01.71 | 79427 | 97572
6 | 21:40.73 | 4:58.52 | 97573 | 119974
7 | 26:39.50 | 4:40.32 | 119975 | 141006
8 | 31:20.07 | 4:39.50 | 141007 | 161981
9 | 35:59.57 | 5:00.12 | 161982 | 184493
10 | 40:59.69 | 5:33.31 | 184494 | 209499
11 | 46:33.25 | 5:20.05 | 209500 | 233504
12 | 51:53.30 | 5:09.15 | 233505 | 256694
Track 1
Filename C:\EAC Rips\Katatonia - [2017] The Great Cold Distance (10th Anniversary Edition) {EBVILE015} - FLAC\Disc 3 - Live in Bulgaria with the Plovdiv Philharmonic Orchestra\01 Leaders.wav
Pre-gap length 0:00:02.00
Peak level 97.5 %
Extraction speed 2.6 X
Track quality 100.0 %
Test CRC 1429891A
Copy CRC 1429891A
Track not present in AccurateRip database
Copy OK
Track 2
Filename C:\EAC Rips\Katatonia - [2017] The Great Cold Distance (10th Anniversary Edition) {EBVILE015} - FLAC\Disc 3 - Live in Bulgaria with the Plovdiv Philharmonic Orchestra\02 Deliberation.wav
Peak level 97.5 %
Extraction speed 3.0 X
Track quality 100.0 %
Test CRC 59F1BFCA
Copy CRC 59F1BFCA
Track not present in AccurateRip database
Copy OK
Track 3
Filename C:\EAC Rips\Katatonia - [2017] The Great Cold Distance (10th Anniversary Edition) {EBVILE015} - FLAC\Disc 3 - Live in Bulgaria with the Plovdiv Philharmonic Orchestra\03 Soil's Song.wav
Peak level 97.5 %
Extraction speed 3.3 X
Track quality 100.0 %
Test CRC 8D8960B7
Copy CRC 8D8960B7
Track not present in AccurateRip database
Copy OK
Track 4
Filename C:\EAC Rips\Katatonia - [2017] The Great Cold Distance (10th Anniversary Edition) {EBVILE015} - FLAC\Disc 3 - Live in Bulgaria with the Plovdiv Philharmonic Orchestra\04 My Twin.wav
Peak level 97.5 %
Extraction speed 3.4 X
Track quality 100.0 %
Test CRC 1610D3FF
Copy CRC 1610D3FF
Track not present in AccurateRip database
Copy OK
Track 5
Filename C:\EAC Rips\Katatonia - [2017] The Great Cold Distance (10th Anniversary Edition) {EBVILE015} - FLAC\Disc 3 - Live in Bulgaria with the Plovdiv Philharmonic Orchestra\05 Consternation.wav
Peak level 97.5 %
Extraction speed 3.6 X
Track quality 100.0 %
Test CRC 2A81CE20
Copy CRC 2A81CE20
Track not present in AccurateRip database
Copy OK
Track 6
Filename C:\EAC Rips\Katatonia - [2017] The Great Cold Distance (10th Anniversary Edition) {EBVILE015} - FLAC\Disc 3 - Live in Bulgaria with the Plovdiv Philharmonic Orchestra\06 Follower.wav
Peak level 97.5 %
Extraction speed 3.9 X
Track quality 100.0 %
Test CRC 67C80E2F
Copy CRC 67C80E2F
Track not present in AccurateRip database
Copy OK
Track 7
Filename C:\EAC Rips\Katatonia - [2017] The Great Cold Distance (10th Anniversary Edition) {EBVILE015} - FLAC\Disc 3 - Live in Bulgaria with the Plovdiv Philharmonic Orchestra\07 Rusted.wav
Peak level 97.5 %
Extraction speed 3.9 X
Track quality 100.0 %
Test CRC 5E54BC69
Copy CRC 5E54BC69
Track not present in AccurateRip database
Copy OK
Track 8
Filename C:\EAC Rips\Katatonia - [2017] The Great Cold Distance (10th Anniversary Edition) {EBVILE015} - FLAC\Disc 3 - Live in Bulgaria with the Plovdiv Philharmonic Orchestra\08 Increase.wav
Peak level 97.5 %
Extraction speed 4.1 X
Track quality 100.0 %
Test CRC 3C549349
Copy CRC 3C549349
Track not present in AccurateRip database
Copy OK
Track 9
Filename C:\EAC Rips\Katatonia - [2017] The Great Cold Distance (10th Anniversary Edition) {EBVILE015} - FLAC\Disc 3 - Live in Bulgaria with the Plovdiv Philharmonic Orchestra\09 July.wav
Peak level 97.5 %
Extraction speed 4.3 X
Track quality 100.0 %
Test CRC 2A59B74B
Copy CRC 2A59B74B
Track not present in AccurateRip database
Copy OK
Track 10
Filename C:\EAC Rips\Katatonia - [2017] The Great Cold Distance (10th Anniversary Edition) {EBVILE015} - FLAC\Disc 3 - Live in Bulgaria with the Plovdiv Philharmonic Orchestra\10 In the White.wav
Peak level 97.5 %
Extraction speed 4.6 X
Track quality 100.0 %
Test CRC F911CD90
Copy CRC F911CD90
Track not present in AccurateRip database
Copy OK
Track 11
Filename C:\EAC Rips\Katatonia - [2017] The Great Cold Distance (10th Anniversary Edition) {EBVILE015} - FLAC\Disc 3 - Live in Bulgaria with the Plovdiv Philharmonic Orchestra\11 The White.wav
Peak level 97.5 %
Extraction speed 4.7 X
Track quality 100.0 %
Test CRC 85BA0DBF
Copy CRC 85BA0DBF
Track not present in AccurateRip database
Copy OK
Track 12
Filename C:\EAC Rips\Katatonia - [2017] The Great Cold Distance (10th Anniversary Edition) {EBVILE015} - FLAC\Disc 3 - Live in Bulgaria with the Plovdiv Philharmonic Orchestra\12 Journey Through Pressure.wav
Peak level 97.5 %
Extraction speed 4.9 X
Track quality 100.0 %
Test CRC 2A53718A
Copy CRC 2A53718A
Track not present in AccurateRip database
Copy OK
None of the tracks are present in the AccurateRip database
No errors occurred
End of status report
---- CUETools DB Plugin V2.1.6
[CTDB TOCID: cOx_PM76V6gCdum3CAiHtgxaDhU-] found
Submit result: cOx_PM76V6gCdum3CAiHtgxaDhU- has been confirmed
Track | CTDB Status
1 | (2/2) Accurately ripped
2 | (2/2) Accurately ripped
3 | (2/2) Accurately ripped
4 | (2/2) Accurately ripped
5 | (2/2) Accurately ripped
6 | (2/2) Accurately ripped
7 | (2/2) Accurately ripped
8 | (2/2) Accurately ripped
9 | (2/2) Accurately ripped
10 | (2/2) Accurately ripped
11 | (2/2) Accurately ripped
12 | (2/2) Accurately ripped
==== Log checksum A113B704060009BF9A344917819D5F01216590DEFEA7E523F9E296C87F519808 ====

Содержание индексной карты (.CUE):

REM GENRE "Depressive Rock/Metal "
REM DATE 2017
REM DISCID 8D0D5E0C
REM COMMENT "ExactAudioCopy v1.3"
PERFORMER "Katatonia"
TITLE "The Great Cold Distance - Live in Bulgaria with the Plovdiv Philharmonic Orch..."
REM COMPOSER ""
FILE "01 Leaders.wav" WAVE
TRACK 01 AUDIO
TITLE "Leaders"
PERFORMER "Katatonia"
REM COMPOSER ""
ISRC GBCQV1600762
INDEX 01 00:00:00
FILE "02 Deliberation.wav" WAVE
TRACK 02 AUDIO
TITLE "Deliberation"
PERFORMER "Katatonia"
REM COMPOSER ""
ISRC GBCQV1600763
INDEX 01 00:00:00
FILE "03 Soil's Song.wav" WAVE
TRACK 03 AUDIO
TITLE "Soil's Song"
PERFORMER "Katatonia"
REM COMPOSER ""
ISRC GBCQV1600764
INDEX 01 00:00:00
FILE "04 My Twin.wav" WAVE
TRACK 04 AUDIO
TITLE "My Twin"
PERFORMER "Katatonia"
REM COMPOSER ""
ISRC GBCQV1600765
INDEX 01 00:00:00
FILE "05 Consternation.wav" WAVE
TRACK 05 AUDIO
TITLE "Consternation"
PERFORMER "Katatonia"
REM COMPOSER ""
ISRC GBCQV1600766
INDEX 01 00:00:00
FILE "06 Follower.wav" WAVE
TRACK 06 AUDIO
TITLE "Follower"
PERFORMER "Katatonia"
REM COMPOSER ""
ISRC GBCQV1600767
INDEX 01 00:00:00
FILE "07 Rusted.wav" WAVE
TRACK 07 AUDIO
TITLE "Rusted"
PERFORMER "Katatonia"
REM COMPOSER ""
ISRC GBCQV1600767
INDEX 01 00:00:00
FILE "08 Increase.wav" WAVE
TRACK 08 AUDIO
TITLE "Increase"
PERFORMER "Katatonia"
REM COMPOSER ""
ISRC GBCQV1600769
INDEX 01 00:00:00
FILE "09 July.wav" WAVE
TRACK 09 AUDIO
TITLE "July"
PERFORMER "Katatonia"
REM COMPOSER ""
ISRC GBCQV1600770
INDEX 01 00:00:00
FILE "10 In the White.wav" WAVE
TRACK 10 AUDIO
TITLE "In the White"
PERFORMER "Katatonia"
REM COMPOSER ""
ISRC GBCQV1600771
INDEX 01 00:00:00
FILE "11 The White.wav" WAVE
TRACK 11 AUDIO
TITLE "The White"
PERFORMER "Katatonia"
REM COMPOSER ""
ISRC GBCQV1600771
INDEX 01 00:00:00
FILE "12 Journey Through Pressure.wav" WAVE
TRACK 12 AUDIO
TITLE "Journey Through Pressure"
PERFORMER "Katatonia"
REM COMPOSER ""
ISRC GBCQV1600773
INDEX 01 00:00:00
Спасибо DemоnizeR'у за фото и лого .

To download the file disable ad blocking, and reload the page.

disable adblock How to disable ad blocking?

Download by magnet link 7.79 GB Download Torrent

Login using:

Similar topics

(Death / Doom Metal) Superstatic - Key to the Abyss - 2018, MP3, 320 kbps
 112 MB   0 | 0   08-Jun-18 14:30   0


   
Current time is: 20-Jan 13:39 :: All times are UTC + 3