-Caligula's Horse / In Contact- -
Жанр: Progressive Metal
Носитель: WEB
Год издания: 2017
Страна исполнителя (группы): Australia
Аудиокодек: FLAC (*.flac)
Тип рипа: tracks
Битрейт аудио: lossless
Продолжительность: 1:07:04
Источник (релизер): WEB
Наличие сканов в содержимом раздачи: нет 01. Dream the Dead (8:10)
02. Will's Song (Let the Colours Run) (4:43)
03. The Hands Are the Hardest (4:26)
04. Love Conquers All (2:21)
05. Songs for No One (7:44)
06. Capulet (3:24)
07. Fill My Heart (6:42)
08. Inertia and the Weapon of the Wall (2:57)
09. The Cannon's Mouth (5:56)
10. Graves (15:31)
11. Atlas (revisited) (5:10)

Лог проверки качества

-----------------------
DON'T MODIFY THIS FILE
-----------------------
PERFORMER: auCDtect Task Manager, ver. 1.6.0 RC1 build 1.6.0.1
Copyright (c) 2008-2010 y-soft. All rights reserved
http://y-soft.org
ANALYZER: auCDtect: CD records authenticity detector, version 0.8.2
Copyright (c) 2004 Oleg Berngardt. All rights reserved.
Copyright (c) 2004 Alexander Djourik. All rights reserved.
FILE: 9 The Cannon's Mouth.flac
Size: 44429339 Hash: 5409B9EB3F288CB7FC4C08FBA0305C54 Accuracy: -m0
Conclusion: CDDA 100%
Signature: F651D51F024E53CA6450BB698F18417991B5F421
FILE: 8 Inertia and the Weapon of the Wall.flac
Size: 13510501 Hash: BC9FB619BDE27FB84F5723EE284B98E9 Accuracy: -m0
Conclusion: CDDA 100%
Signature: D08734EA697B46E69C4F142B564EC17D18FBAE9F
FILE: 7 Fill My Heart.flac
Size: 50041622 Hash: 3A3C6B2D8A9B380D771CB1BF53459C41 Accuracy: -m0
Conclusion: CDDA 100%
Signature: D6AF2E00C6C8FEEBCFA1296E1793D1B649B997F0
FILE: 6 Capulet.flac
Size: 21873810 Hash: 09E23D5A85FCE88A8403163F557D146D Accuracy: -m0
Conclusion: CDDA 100%
Signature: 8280E29D3DC721D6468B0CAB9FAF5988B4A504B7
FILE: 5 Songs for No One.flac
Size: 59308315 Hash: E98626400037E1326E4E560BB5702DEF Accuracy: -m0
Conclusion: CDDA 100%
Signature: AE3E3E229CB53B81E31C82CFE8E24F3BE9B6B2C5
FILE: 4 Love Conquers All.flac
Size: 14749161 Hash: E4B00E56745678DA9A9442CADD2959EF Accuracy: -m0
Conclusion: CDDA 100%
Signature: BF6A48566E3D5592876575843E058B39244727B3
FILE: 3 The Hands Are the Hardest.flac
Size: 35962611 Hash: 5F96427276FCD603E4A097B64A6E684B Accuracy: -m0
Conclusion: CDDA 100%
Signature: B470CAE3FA4A21266542A14ED389BB9976D2F49D
FILE: 2 Will's Song (Let the Colours Run).flac
Size: 38219970 Hash: 0D295D6E5916C2BD311A332B90D6086A Accuracy: -m0
Conclusion: CDDA 100%
Signature: B65036362A0AE6D1AE3C84551E181A46083F06AE
FILE: 11 Atlas (revisited).flac
Size: 40011595 Hash: 554A835435F9466AD54250331015E940 Accuracy: -m0
Conclusion: CDDA 100%
Signature: 83BBFB43E29A7EA16B0DD1B32295241E431FBD65
FILE: 10 Graves.flac
Size: 113192016 Hash: B70410882886F23BED73934A76D99836 Accuracy: -m0
Conclusion: CDDA 100%
Signature: 6FB781C51043840746C3C14D8DF72E843881E14C
FILE: 1 Dream the Dead.flac
Size: 61019508 Hash: 838AD602B03CEF2E4B258A40D45634CA Accuracy: -m0
Conclusion: CDDA 100%
Signature: B7E2DAE0ACA76724FD37C71B22EA87201498796E

Лог DRM

foobar2000 1.3.9 / Dynamic Range Meter 1.1.1
log date: 2017-09-16 15:36:53
--------------------------------------------------------------------------------
Analyzed: Caligula's Horse / In Contact
--------------------------------------------------------------------------------
DR Peak RMS Duration Track
--------------------------------------------------------------------------------
DR5 -0.18 dB -7.83 dB 8:10 01-Dream the Dead
DR5 -0.18 dB -5.98 dB 4:43 02-Will's Song (Let the Colours Run)
DR6 -0.18 dB -7.24 dB 4:26 03-The Hands Are the Hardest
DR8 -0.18 dB -11.64 dB 2:21 04-Love Conquers All
DR5 -0.18 dB -7.17 dB 7:44 05-Songs for No One
DR8 -0.38 dB -11.48 dB 3:24 06-Capulet
DR5 -0.18 dB -8.08 dB 6:42 07-Fill My Heart
DR13 -0.88 dB -18.72 dB 2:57 08-Inertia and the Weapon of the Wall
DR6 -0.18 dB -7.90 dB 5:56 09-The Cannon's Mouth
DR5 -0.18 dB -8.43 dB 15:31 10-Graves
DR8 -0.30 dB -9.99 dB 5:10 11-Atlas (revisited)
--------------------------------------------------------------------------------
Number of tracks: 11
Official DR value: DR7
Samplerate: 44100 Hz
Channels: 2
Bits per sample: 16
Bitrate: 1025 kbps
Codec: FLAC
================================================================================
--

Состав

Sam Vallen / Guitars
Jim Grey / Vocals
Dave Couper / Bass
Josh Griffin / Drums
Adrian Goleby / Guitars

To download the file disable ad blocking, and reload the page.

disable adblock How to disable ad blocking?

Download by magnet link 470 MB Download Torrent

Login using:

Similar topics

(Heavy Metal/Progressive) Wine Guardian - Onirica - 2017, MP3, 320 kbps
 115 MB   0 | 0   26-May-17 21:27   0


   
Current time is: 20-Jan 15:01 :: All times are UTC + 3