Edguy / Rocket Ride (MICP-10565, Japan)
Жанр: Heavy Metal, Power Metal
Носитель: CD
Страна-производитель диска: Japan
Год издания: 2006
Издатель (лейбл): Marquee Inc.
Номер по каталогу: MICP-10565
Страна исполнителя (группы): Germany
Аудиокодек: FLAC (*.flac)
Тип рипа: image+.cue
Битрейт аудио: lossless
Продолжительность: 01:14:41
Источник (релизер): unknown (но всё равно - спасибо!) [mOole*ru]
Наличие сканов в содержимом раздачи: нет
Треклист:
01.
8:02
02.
6:06
03.
5:48
04.
4:07
05.
4:48
06.
7:38
07.
3:47
08.
4:01
09. Out Of Vogue 4:36
10.
3:19
11.
3:28
12.
4:22
13.
(Limited Edition Bonus Track) 5:50
14.

(Japanese Bonus Track) 4:05
15.

(Japanese Bonus Track) 4:40

Лог создания рипа

Отчёт EAC об извлечении, выполненном 27. июня 2007, 23:20 для диска:
Edguy / Rocket Ride
Дисковод: ASUS CD-S500/A Adapter: 1 ID: 1
Режим чтения: Точный (C2: нет, Точный поток: да, Отключение кэша: да)
Комбинированное смещение чтения/записи: 12
Экстрачтение областей Lead-in и Lead-out : Нет
Выходной формат: Внутренние WAV-операции
44.100 Гц; 16 бит; стерео
Другие параметры:
Заполнение пропущенных сэмплов тишиной : Да
Удаление блоков с тишиной в начале и конце : Нет
'Родной' Win32-интерфейс для Win NT/2000
Статус диапазона и ошибки
Выбранный диапазон
Имя файла C:\APE\Valera\Edguy - Rocket Ride (2006).wav
Пиковый уровень 100.0 %
Качество диапазона 100.0 %
CRC B88BFC72
Копирование... OK
Ошибок не произошло
Конец отчёта

Содержание индексной карты (.CUE)

REM GENRE "Power Metal"
REM DATE 2006
PERFORMER "Edguy"
TITLE "Rocket Ride (MICP-10565)"
FILE "Edguy - Rocket Ride (MICP-10565).flac" WAVE
TRACK 01 AUDIO
TITLE "Sacrifice"
PERFORMER "Edguy"
INDEX 01 00:00:00
TRACK 02 AUDIO
TITLE "Return To The Tribe"
PERFORMER "Edguy"
INDEX 00 08:01:33
INDEX 01 08:02:33
TRACK 03 AUDIO
TITLE "Wasted Time"
PERFORMER "Edguy"
INDEX 00 14:08:12
INDEX 01 14:08:41
TRACK 04 AUDIO
TITLE "Matrix"
PERFORMER "Edguy"
INDEX 00 19:54:29
INDEX 01 19:56:62
TRACK 05 AUDIO
TITLE "Rocket Ride"
PERFORMER "Edguy"
INDEX 00 24:04:00
INDEX 01 24:04:13
TRACK 06 AUDIO
TITLE "The Asylum"
PERFORMER "Edguy"
INDEX 00 28:51:59
INDEX 01 28:52:30
TRACK 07 AUDIO
TITLE "Save Me"
PERFORMER "Edguy"
INDEX 00 36:30:45
INDEX 01 36:31:13
TRACK 08 AUDIO
TITLE "Catch Of The Century"
PERFORMER "Edguy"
INDEX 01 40:18:31
TRACK 09 AUDIO
TITLE "Out Of Vogue"
PERFORMER "Edguy"
INDEX 01 44:20:19
TRACK 10 AUDIO
TITLE "Superheroes"
PERFORMER "Edguy"
INDEX 00 48:56:07
INDEX 01 48:56:54
TRACK 11 AUDIO
TITLE "Trinidad"
PERFORMER "Edguy"
INDEX 00 52:14:05
INDEX 01 52:15:65
TRACK 12 AUDIO
TITLE "Fucking With Fire (Hair Force One)"
PERFORMER "Edguy"
INDEX 00 55:43:16
INDEX 01 55:44:33
TRACK 13 AUDIO
TITLE "Land Of The Miracle (Live In Brazil) (Limited Edition Bonus Track)"
PERFORMER "Edguy"
INDEX 00 60:04:63
INDEX 01 60:07:26
TRACK 14 AUDIO
TITLE "Reach Out (Japanese Bonus Track)"
PERFORMER "Edguy"
INDEX 00 65:54:49
INDEX 01 65:57:46
TRACK 15 AUDIO
TITLE "Lavatory Love Machine (Acoustic Version) (Japanese Bonus Track)"
PERFORMER "Edguy"
INDEX 00 70:01:18
INDEX 01 70:03:25

Лог проверки качества

AUDIOCHECKER v2.0 beta (build 457) - by Dester - opdester@freemail.hu
~~~~~~~~~~~~~~~~~~~~~~~~~~~~~~~~~~
-=== DO NOT EDIT THIS FILE! ===-
Путь: ...\2006 - Rocket Ride (Avalon Marquee Inc. MICP-10565, Japan)_FLAC (image+.cue)
1 -=- Edguy - Rocket Ride (MICP-10565).flac -=- CDDA (100%)
6395844

Лог AccurateRip

[CUETools log; Date: 15.09.2017 21:45:37; Version: 2.1.5]
[CTDB TOCID: OQFLvDSzcJtg2LzALElt5wlJ2m0-] found.
Track | CTDB Status
1 | (21/21) Accurately ripped
2 | (21/21) Accurately ripped
3 | (21/21) Accurately ripped
4 | (21/21) Accurately ripped
5 | (21/21) Accurately ripped
6 | (21/21) Accurately ripped
7 | (21/21) Accurately ripped
8 | (21/21) Accurately ripped
9 | (21/21) Accurately ripped
10 | (21/21) Accurately ripped
11 | (21/21) Accurately ripped
12 | (21/21) Accurately ripped
13 | (21/21) Accurately ripped
14 | (21/21) Accurately ripped
15 | (21/21) Accurately ripped
[AccurateRip ID: 002c3885-01e70b91-e211810f] found.
Track [ CRC | V2 ] Status
01 [2a15d363|e9ab11fa] (0+0/5) No match
02 [e3b4f46d|0d0b2af5] (0+0/5) No match
03 [0d14f541|85035168] (0+0/5) No match
04 [bc88f596|b5760f1f] (0+0/5) No match
05 [8eae8913|ac8109a5] (0+0/5) No match
06 [240735c8|2b8e7a83] (0+0/5) No match
07 [a90cb249|5bf5c2bb] (0+0/5) No match
08 [915da229|c739ca10] (0+0/5) No match
09 [4f66b20c|8ecbab1d] (0+0/5) No match
10 [b495c83d|4fc628ca] (0+0/5) No match
11 [2d9669f2|7a5a56f3] (0+0/5) No match
12 [c95d127a|bdbd5e72] (0+0/5) No match
13 [2d225ca4|aedcd4f5] (0+0/4) No match
14 [f0cd22e0|a310245a] (0+0/5) No match
15 [8e8676ef|b7ba852e] (0+0/5) No match
Offsetted by 1858:
01 [74e302fb] (3/5) Accurately ripped
02 [ae6756b3] (3/5) Accurately ripped
03 [f33e46b3] (3/5) Accurately ripped
04 [b07d7a9a] (3/5) Accurately ripped
05 [c50dc971] (3/5) Accurately ripped
06 [a17a1dd2] (3/5) Accurately ripped
07 [0769fb37] (3/5) Accurately ripped
08 [ea68725e] (3/5) Accurately ripped
09 [40c4d6d5] (3/5) Accurately ripped
10 [e1beccc5] (3/5) Accurately ripped
11 [8d102b6c] (3/5) Accurately ripped
12 [7b13754c] (3/5) Accurately ripped
13 [c2c5b38a] (2/4) Accurately ripped
14 [a78bdf14] (3/5) Accurately ripped
15 [65c3cfdf] (3/5) Accurately ripped
Track Peak [ CRC32 ] [W/O NULL]
-- 100,0 [B88BFC72] [9F3A850C]
01 100,0 [7C9E63A9] [A3A8FA58]
02 97,7 [DEEFEB62] [6EB0D73A]
03 97,7 [185E6A69] [ED2E6B40]
04 98,8 [84324C4C] [80DDE4B8]
05 97,7 [BFEFB470] [2B131BFF]
06 97,7 [0D9842C3] [58BBBED8]
07 98,8 [BA19CBA6] [A1C4777B]
08 98,8 [29C9E765] [23E3EF06]
09 97,7 [1FCDA8ED] [C5ADE954]
10 97,7 [196AB629] [548017EE]
11 98,8 [223A6CFE] [6B2AAED3]
12 98,8 [7A3952E6] [5F8F2614]
13 100,0 [9852A3E7] [8772A1E9]
14 75,0 [DEF53EC0] [708DF00D]
15 78,5 [6F1383A9] [DE9A6918]

Лог Dynamic Range Meter

foobar2000 1.3.16 / Замер динамического диапазона (DR) 1.1.1
Дата отчёта: 2017-09-15 21:56:48
--------------------------------------------------------------------------------
Анализ: Edguy / Rocket Ride (MICP-10565)
--------------------------------------------------------------------------------
DR Пики RMS Продолжительность трека
--------------------------------------------------------------------------------
DR5 0.00 дБ -6.43 дБ 8:02 01-Sacrifice
DR5 -0.20 дБ -6.41 дБ 6:06 02-Return To The Tribe
DR7 -0.20 дБ -8.53 дБ 5:48 03-Wasted Time
DR5 -0.10 дБ -6.84 дБ 4:07 04-Matrix
DR6 -0.20 дБ -7.11 дБ 4:48 05-Rocket Ride
DR5 -0.20 дБ -7.93 дБ 7:39 06-The Asylum
DR5 -0.10 дБ -7.29 дБ 3:47 07-Save Me
DR6 -0.10 дБ -7.14 дБ 4:02 08-Catch Of The Century
DR6 -0.20 дБ -6.66 дБ 4:36 09-Out Of Vogue
DR5 -0.20 дБ -6.36 дБ 3:19 10-Superheroes
DR5 -0.10 дБ -7.26 дБ 3:29 11-Trinidad
DR6 -0.10 дБ -7.51 дБ 4:23 12-Fucking With Fire (Hair Force One)
DR8 0.00 дБ -9.53 дБ 5:50 13-Land Of The Miracle (Live In Brazil) (Limited Edition Bonus Track)
DR8 -2.50 дБ -12.92 дБ 4:06 14-Reach Out (Japanese Bonus Track)
DR7 -2.10 дБ -10.37 дБ 4:38 15-Lavatory Love Machine (Acoustic Version) (Japanese Bonus Track)
--------------------------------------------------------------------------------
Количество треков: 15
Реальные значения DR: DR6
Частота: 44100 Гц
Каналов: 2
Разрядность: 16
Битрейт: 982 кбит/с
Кодек: FLAC
================================================================================
Доп. информация: Ресурс помню, релизера - увы, нет. ("Тут помню, тут - ничего..." ©)

Об альбоме (сборнике)

Music By - Tobias Sammet (tracks: 1 to 15), Jens Ludwig (tracks: 9)
Lyrics By - Tobias Sammet
Track 13 Live recorded in Brazil, October 2nd, 2004, presented as Limited Edition bonus track.
Tracks 14, 15 is a Japanese bonus tracks.
Manufactured by Marquee Inc., Japan. Licensed from Edguy.
℗&© 2006 Made in Japan.

Состав

Vocals - Tobias Sammet (Born - November 21, 1977 in Fulda, Hesse, Germany)
Guitars [Lead] - Jens Ludwig (Born - August 30, 1977 in Fulda, Hesse, Germany)
Guitars [Rhythm] - Dirk Sauer (Born - September 1, 1977 in Germany)
Bass - Tobias "Eggi" Exxel (Born - February 27, 1973 in Germany)
Drums - Felix Bohnke (Born - September 2, 1974 in Königstein, Saxony, Germany)
Keyboards, Orchestrated By - Michael "Miro" Rodenberg (Born - April 9, 1970 in Wolfsburg, Lower Saxony, Germany)
Backing Vocals - Amanda Somerville, Oliver Hartmann, Ralf Zdiarstek, Thomas Rettke

To download the file disable ad blocking, and reload the page.

disable adblock How to disable ad blocking?

Download by magnet link 526 MB Download Torrent

Login using:

Similar topics

(Heavy | Power Metal) DRK - Layers - 2019, MP3, 320 kbps
 107 MB   0 | 0   Today 05:50   2
(Heavy Metal, Power Metal) Angelix - Demo 1990 - 1990, MP3, 320 kbps
 88 MB   0 | 0   09-Jan-19 16:10   2
(Heavy Metal) Powergame - Masquerade - 2019, MP3, 320 kbps
 114 MB   0 | 0   07-Jan-19 23:15   3


   
Current time is: 20-Jan 13:44 :: All times are UTC + 3