Jack Starr's Burning Starr / Stand Your Ground
Жанр: Heavy Metal
Носитель: CD
Страна-производитель диска (релиза): Россия
Год издания: 2017
Издатель (лейбл): Исходно - High Roller Records
Номер по каталогу: Исходно - HRR 569 CD
Страна исполнителя (группы): США
Аудиокодек: FLAC (*.flac)
Тип рипа: image+.cue
Битрейт аудио: lossless
Продолжительность: 01:15:43
Источник (релизер): Собственный диск
Наличие сканов в содержимом раздачи: да
Треклист:
1. Secrets We Hide 05:09
2. The Enemy 05:14
3. Stand Your Ground 10:25
4. Hero 04:23
5. Destiny 05:50
6. The Sky Is Falling 05:46
7. Worlds Apart 05:28
8. Escape from the Night 05:50
9. We Are One 08:12
10. Stronger than Steel 05:55
11. False Gods 06:45
12. To the Ends 06:46
01:15:43

Лог создания рипа

Exact Audio Copy V1.0 beta 3 from 29. August 2011
EAC extraction logfile from 15. September 2017, 22:56
Jack Starr's Burning Starr / Stand Your Ground
Used drive : Optiarc DVD RW AD-7260S Adapter: 1 ID: 1
Read mode : Secure
Utilize accurate stream : Yes
Defeat audio cache : Yes
Make use of C2 pointers : No
Read offset correction : 48
Overread into Lead-In and Lead-Out : No
Fill up missing offset samples with silence : Yes
Delete leading and trailing silent blocks : No
Null samples used in CRC calculations : Yes
Used interface : Native Win32 interface for Win NT & 2000
Used output format : Internal WAV Routines
Sample format : 44.100 Hz; 16 Bit; Stereo
TOC of the extracted CD
Track | Start | Length | Start sector | End sector
---------------------------------------------------------
1 | 0:00.00 | 5:08.63 | 0 | 23162
2 | 5:08.63 | 5:13.70 | 23163 | 46707
3 | 10:22.58 | 10:24.58 | 46708 | 93565
4 | 20:47.41 | 4:22.55 | 93566 | 113270
5 | 25:10.21 | 5:50.32 | 113271 | 139552
6 | 31:00.53 | 5:46.19 | 139553 | 165521
7 | 36:46.72 | 5:28.22 | 165522 | 190143
8 | 42:15.19 | 5:49.40 | 190144 | 216358
9 | 48:04.59 | 8:12.14 | 216359 | 253272
10 | 56:16.73 | 5:54.33 | 253273 | 279855
11 | 62:11.31 | 6:44.48 | 279856 | 310203
12 | 68:56.04 | 6:46.24 | 310204 | 340677
Range status and errors
Selected range
Filename C:\Мои документы\Jack Starr's Burning Starr - 2017 - Stand Your Ground.wav
Peak level 98.4 %
Extraction speed 4.4 X
Range quality 100.0 %
Test CRC A932E3A1
Copy CRC A932E3A1
Copy OK
No errors occurred
AccurateRip summary
Track 1 accurately ripped (confidence 1) [3D16C327] (AR v2)
Track 2 accurately ripped (confidence 1) [E6BDA9EC] (AR v2)
Track 3 accurately ripped (confidence 1) [D0BCF675] (AR v2)
Track 4 accurately ripped (confidence 1) [F3127884] (AR v2)
Track 5 accurately ripped (confidence 1) [42235173] (AR v2)
Track 6 accurately ripped (confidence 1) [3B6D4F47] (AR v2)
Track 7 accurately ripped (confidence 1) [FF3B3DDA] (AR v2)
Track 8 accurately ripped (confidence 1) [AEDE96BA] (AR v2)
Track 9 accurately ripped (confidence 1) [5CCCDCF4] (AR v2)
Track 10 cannot be verified as accurate (confidence 1) [9CF52B4F], AccurateRip returned [D6158823] (AR v2)
Track 11 accurately ripped (confidence 1) [75A7BE4A] (AR v2)
Track 12 accurately ripped (confidence 1) [EEBC7D63] (AR v2)
11 трек(и) скопированы точно
1 трек(и) не удалось проверить на точность
Some tracks could not be verified as accurate
End of status report
---- CUETools DB Plugin V2.1.4
[CTDB TOCID: Bd2w4OqsR_9jXPbbrvZB3PJEAkQ-] found
Submit result: Bd2w4OqsR_9jXPbbrvZB3PJEAkQ- has been confirmed
Track | CTDB Status
1 | (2/2) Accurately ripped
2 | (2/2) Accurately ripped
3 | (2/2) Accurately ripped
4 | (2/2) Accurately ripped
5 | (2/2) Accurately ripped
6 | (2/2) Accurately ripped
7 | (2/2) Accurately ripped
8 | (2/2) Accurately ripped
9 | (2/2) Accurately ripped
10 | (2/2) Accurately ripped
11 | (2/2) Accurately ripped
12 | (2/2) Accurately ripped
==== Log checksum 7C500846DBA84B7F58BD929DEDA12C89DAE92437CB8E6A69323A18DD89E723C6 ====

If you like the topic, please click share to help develop our site.

To download the file disable ad blocking, and reload the page.

disable adblock How to disable ad blocking?

Download by magnet link 645 MB Download Torrent

Login using:

Similar topics



   
Current time is: 17-Jun 01:33 :: All times are UTC + 3