Название: Любовник
Оригинальное название: The Lover / L'amant
Год выхода: 1992
Страна: Франция, Великобритания, Вьетнам
Студия: Films A2, Grai Phang Film Studio, Renn Productions
Продолжительность: 01:55:33
Жанр: драма, мелодрама, биография
Режиссер: Жан-Жак Анно
В ролях: Джейн Марч, Тони Люн Ка Фай, Фредерика Мейнинже, Арно Джованинетти, Мельвиль Пупо, Лиза Фолкнер, Сиэм Ман, Филипп Ле Дем, Энн Шофюсс, Квач Ван Ан, ...
Перевод:
- Профессиональный (многоголосый, закадровый) R5
- Профессиональный (двуголосый, закадровый) НТВ+
- Авторский (одноголосый, закадровый) Гаврилов Андрей Юрьевич
- Субтитры
О фильме: 30-е годы. Колониальный Сайгон. Красивый, богатый, изысканный китаец знакомится с француженкой. Ей лет пятнадцать. Их любовь под родительским запретом. Но такую «империю чувств», пленительную и прочную, разрушить никому не дано…

Кодек: x264
Качество: BDRip 1080p
Видео: 1920x1036, 12000 kbps, 24 fps
Аудио #1: AC-3, 2 ch, 192 kbps (Rus) - MVO R5
Аудио #2: AC-3, 2 ch, 192 kbps (Rus) - DVO НТВ+
Аудио #3: AC-3, 2 ch, 192 kbps (Rus) - AVO Гаврилов Андрей Юрьевич
Аудио #4: AC-3, 2 ch, 192 kbps (Eng)
Аудио #5: AC-3, 2 ch, 384 kbps (Fre) - Dub
Субтитры: русские, английские, французские
Спасибо за исходник

Дополнительная информация

Сравниваем с исходником:

MediaInfo

x264 [info]: frame I:879 Avg QP:16.63 size:178533
x264 [info]: frame P:31843 Avg QP:18.82 size: 92086
x264 [info]: frame B:133678 Avg QP:20.88 size: 54657
x264 [info]: consecutive B-frames: 1.0% 1.5% 6.0% 9.4% 11.6% 60.2% 5.0% 1.7% 0.7% 0.8% 0.5% 1.6% 0.1%
Общее
Уникальный идентификатор : 239134526340001318709763039505823269062 (0xB3E7A26EB0D46C06843FD409A9E380C6)
Полное имя : Любовник (L’amant) 1992 BDRip 1080p.mkv
Формат : Matroska
Версия формата : Version 2
Размер файла : 10,6 Гбайт
Продолжительность : 1 ч. 55 м.
Общий поток : 13,2 Мбит/сек
Дата кодирования : UTC 2017-09-15 21:05:38
Программа кодирования : mkvmerge v4.0.0 ('The Stars were mine') сборка от Jun 6 2010 16:18:42
Библиотека кодирования : libebml v1.0.0 + libmatroska v1.0.0
Видео
Идентификатор : 1
Формат : AVC
Формат/Информация : Advanced Video Codec
Профиль формата : High@L4.1
Параметр CABAC формата : Да
Параметр ReFrames формата : 4 кадра
Идентификатор кодека : V_MPEG4/ISO/AVC
Продолжительность : 1 ч. 55 м.
Битрейт : 12,0 Мбит/сек
Ширина : 1920 пикселей
Высота : 1036 пикселей
Соотношение сторон : 1,85:1
Режим частоты кадров : Постоянный
Частота кадров : 24,000 кадра/сек
Цветовое пространство : YUV
Субдискретизация насыщенности : 4:2:0
Битовая глубина : 8 бит
Тип развёртки : Прогрессивная
Бит/(Пиксели*Кадры) : 0.251
Размер потока : 9,47 Гбайт (89%)
Библиотека кодирования : x264 core 146 r2538 121396c
Настройки программы : cabac=1 / ref=4 / deblock=1:-2:-2 / analyse=0x3:0x133 / me=umh / subme=11 / psy=1 / psy_rd=1.00:0.00 / mixed_ref=1 / me_range=32 / chroma_me=1 / trellis=2 / 8x8dct=1 / cqm=0 / deadzone=21,11 / fast_pskip=0 / chroma_qp_offset=-2 / threads=12 / lookahead_threads=2 / sliced_threads=0 / nr=0 / decimate=0 / interlaced=0 / bluray_compat=0 / constrained_intra=0 / bframes=12 / b_pyramid=2 / b_adapt=2 / b_bias=0 / direct=3 / weightb=1 / open_gop=0 / weightp=2 / keyint=240 / keyint_min=24 / scenecut=40 / intra_refresh=0 / rc=2pass / mbtree=0 / bitrate=12000 / ratetol=1.0 / qcomp=0.60 / qpmin=0 / qpmax=69 / qpstep=4 / cplxblur=20.0 / qblur=0.5 / ip_ratio=1.40 / pb_ratio=1.30 / aq=3:0.80
Язык : French
Default : Нет
Forced : Нет
Аудио #1
Идентификатор : 2
Формат : AC-3
Формат/Информация : Audio Coding 3
Расширение режима : CM (complete main)
Параметр Endianness формата : Big
Идентификатор кодека : A_AC3
Продолжительность : 1 ч. 55 м.
Вид битрейта : Постоянный
Битрейт : 192 Кбит/сек
Каналы : 2 канала
Расположение каналов : Front: L R
Частота : 48,0 КГц
Частота кадров : 31,250 кадров/сек (1536 spf)
Метод сжатия : С потерями
Размер потока : 159 Мбайт (1%)
Заголовок : MVO R5
Язык : Russian
Default : Нет
Forced : Нет
Аудио #2
Идентификатор : 3
Формат : AC-3
Формат/Информация : Audio Coding 3
Расширение режима : CM (complete main)
Параметр Endianness формата : Big
Идентификатор кодека : A_AC3
Продолжительность : 1 ч. 55 м.
Вид битрейта : Постоянный
Битрейт : 192 Кбит/сек
Каналы : 2 канала
Расположение каналов : Front: L R
Частота : 48,0 КГц
Частота кадров : 31,250 кадров/сек (1536 spf)
Метод сжатия : С потерями
Размер потока : 159 Мбайт (1%)
Заголовок : DVO НТВ+
Язык : Russian
Default : Нет
Forced : Нет
Аудио #3
Идентификатор : 4
Формат : AC-3
Формат/Информация : Audio Coding 3
Расширение режима : CM (complete main)
Параметр Endianness формата : Big
Идентификатор кодека : A_AC3
Продолжительность : 1 ч. 55 м.
Вид битрейта : Постоянный
Битрейт : 192 Кбит/сек
Каналы : 2 канала
Расположение каналов : Front: L R
Частота : 48,0 КГц
Частота кадров : 31,250 кадров/сек (1536 spf)
Метод сжатия : С потерями
Размер потока : 159 Мбайт (1%)
Заголовок : AVO Гаврилов Андрей Юрьевич
Язык : Russian
Default : Нет
Forced : Нет
Аудио #4
Идентификатор : 5
Формат : AC-3
Формат/Информация : Audio Coding 3
Расширение режима : CM (complete main)
Параметр Endianness формата : Big
Идентификатор кодека : A_AC3
Продолжительность : 1 ч. 55 м.
Вид битрейта : Постоянный
Битрейт : 192 Кбит/сек
Каналы : 2 канала
Расположение каналов : Front: L R
Частота : 48,0 КГц
Частота кадров : 31,250 кадров/сек (1536 spf)
Метод сжатия : С потерями
Размер потока : 159 Мбайт (1%)
Язык : English
Default : Нет
Forced : Нет
Аудио #5
Идентификатор : 6
Формат : AC-3
Формат/Информация : Audio Coding 3
Расширение режима : CM (complete main)
Параметр Endianness формата : Big
Идентификатор кодека : A_AC3
Продолжительность : 1 ч. 55 м.
Вид битрейта : Постоянный
Битрейт : 384 Кбит/сек
Каналы : 2 канала
Расположение каналов : Front: L R
Частота : 48,0 КГц
Частота кадров : 31,250 кадров/сек (1536 spf)
Метод сжатия : С потерями
Размер потока : 317 Мбайт (3%)
Язык : French
Default : Нет
Forced : Нет
Текст #1
Идентификатор : 7
Формат : UTF-8
Идентификатор кодека : S_TEXT/UTF8
Идентификатор кодека/Информация : UTF-8 Plain Text
Заголовок : sasikainen
Язык : Russian
Default : Нет
Forced : Нет
Текст #2
Идентификатор : 8
Формат : UTF-8
Идентификатор кодека : S_TEXT/UTF8
Идентификатор кодека/Информация : UTF-8 Plain Text
Язык : Russian
Default : Нет
Forced : Нет
Текст #3
Идентификатор : 9
Формат : UTF-8
Идентификатор кодека : S_TEXT/UTF8
Идентификатор кодека/Информация : UTF-8 Plain Text
Язык : English
Default : Нет
Forced : Нет
Текст #4
Идентификатор : 10
Формат : UTF-8
Идентификатор кодека : S_TEXT/UTF8
Идентификатор кодека/Информация : UTF-8 Plain Text
Язык : French
Default : Нет
Forced : Нет

To download the file disable ad blocking, and reload the page.

disable adblock How to disable ad blocking?

Download by magnet link 10.61 GB Download Torrent

Login using:

Similar topics

Любовники / The Lovers (2017) BDRip 1080p | iTunes
 6.82 GB   5 | 1   05-Feb-18 22:30   0


   
Current time is: 20-Jan 13:35 :: All times are UTC + 3