Информация о фильме
Название: Мистер и миссис Смит
Оригинальное название: Mr. & Mrs. Smith
Год выхода: 2005
Жанр: боевик, триллер, мелодрама, комедия, криминал
Режиссер: Даг Лайман
В ролях: Брэд Питт, Анджелина Джоли, Винс Вон, Адам Броди, Керри Вашингтон, Кит Дэвид, Крис Вайц, Рэйчел Хантли, Мишель Монахэн, Стефани Марч
О фильме:
Джон и Джейн женаты не так долго, но уже утомлены своим браком. Им кажется, что они знают друг о друге все. Но есть кое-что, что каждый предпочитает держать при себе: оба они — наемные убийцы, которые тайно путешествуют по миру, выполняя опасные миссии. Эти отдельные тайные приключения становятся их общей судьбой в тот момент, когда Джейн получает заказ на Джона, а Джон на Джейн.

Страна: США
Студия: Epsilon Motion Pictures, New Regency Pictures, Regency Enterprises, Summit Entertainment, Weed Road Pictures
Продолжительность: 02:05:33
Перевод: Профессиональный (двухголосый, закадровый) Tycoon-Studio + Профессиональный (многоголосый, закадровый) Киномания + Авторский (одноголосый, закадровый) А.Гаврилов + Авторский (одноголосый, закадровый) Д.Есарев + Авторский (одноголосый, закадровый) В.Королёв
Файл
Качество: BDRip 1080p
Формат: Matroska
Видео: 1920x816 at 23.976 fps, [email protected], ~13500 kbps avg
Аудио#1: Russian: 48 kHz, DTS, 3/2 (L,C,R,l,r) + LFE ch, ~1509 kbps avg |Двухголосый закадровый, Tycoon-Studio|
Аудио#2: Russian: 48 kHz, AC3, 3/2 (L,C,R,l,r) + LFE ch, ~448 kbps avg |Многоголосый закадровый, Киномания|
Аудио#3: Russian: 48 kHz, DTS, 3/2 (L,C,R,l,r) + LFE ch, ~1509 kbps avg |Авторский, А.Гаврилов|
Аудио#4: Russian: 48 kHz, DTS, 3/2 (L,C,R,l,r) + LFE ch, ~1509 kbps avg |Авторский, Д.Есарев|
Аудио#5: Russian: 48 kHz, DTS, 3/2 (L,C,R,l,r) + LFE ch, ~755 kbps avg |Авторский, В.Королёв|
Аудио#6: English: 48 kHz, DTS, 3/2 (L,C,R,l,r) + LFE ch, ~1509 kbps avg
Аудио#7: English: 48 kHz, AC3, 2/0 (L,R) ch, ~192 kbps avg |Commentary by Doug Liman and Simon Kinberg|
Субтитры: Russian, English
***Сохранены оригинальные главы как на Blu-ray.
***Видеоряд - WiKi, сборка рипа - ShodRazval.
***За дорожки #1,3 спасибо: HANSMER, AnryV и stfuuu, AndreyTula.
***Перевод Д.Есарева доступен благодаря: mihaildns, Skazhutin, igrok2012, Wa1ker, Pr0peLLer, mv73, shandorra, napaHouk, sa1992, xavier. Работа со звуком Переводман.

Знаете ли вы, что...

Первым выбором на роль миссис Смит стала Николь Кидман. В свою очередь, роль мистера Смита изначально предполагалась для Джонни Деппа, однако актер был настолько нагружен другими проектами, что предпочел отклонить это предложение. Также на роль миссис Смит предлагались кандидатуры Кэтрин Зета-Джонс и Кейт Бланшетт, а роль мистера Смита мог исполнить реальный Смит (Уилл).
Брэд Питт покинул проект после того, как из него ушла Николь Кидман. Однако, как только согласие на роль дала Анджелина Джоли, актёр вновь подтвердил своё участие.
Для того, чтобы получить приемлемый для проката подобной картины рейтинг (PG-13), создателям картины пришлось вырезать постельную сцену между персонажами Питта и Джоли.
Одна из жертв мистера Смита — Бенджамин — в начале фильма красуется в майке с названием фильма «Бойцовский клуб» (1999), в котором сыграл одну из главных ролей Брэд Питт.
В фильме есть элементы сериала «Мистер и миссис Смит» (1996) и эксцентрической комедии Альфреда Хичкока «Мистер и миссис Смит» (1941).
Съемки фильма проходили в Сан Марино, штат Калифорния.
В разгар съемок ленты Питт на 3 месяца оставил проект, чтобы сняться в фильме «Двенадцать друзей Оушена» (2004).

MediaInfo

Общее
Уникальный идентификатор : 217431725161865894578094144319595943041 (0xA393D3B88F2DCA88B6A2CA6A12AB1481)
Полное имя : Mr. & Mrs. Smith.2005.DC.1080p.BluRay.5xRus.Eng.x264.mkv
Формат : Matroska
Версия формата : Version 2
Размер файла : 18,4 Гбайт
Продолжительность : 2 ч. 5 м.
Общий поток : 20,9 Мбит/сек
Название фильма : igrok2012
Дата кодирования : UTC 2016-03-31 12:42:53
Программа кодирования : mkvmerge v8.3.0 ('Over the Horizon') 64bit
Библиотека кодирования : libebml v1.3.1 + libmatroska v1.4.2
Attachements : cover.jpg
Видео
Идентификатор : 1
Формат : AVC
Формат/Информация : Advanced Video Codec
Профиль формата : [email protected]
Параметр CABAC формата : Да
Параметр ReFrames формата : 5 кадров
Идентификатор кодека : V_MPEG4/ISO/AVC
Битрейт : 13,5 Мбит/сек
Ширина : 1920 пикселей
Высота : 816 пикселей
Соотношение сторон : 2,35:1
Режим частоты кадров : Переменный
Частота кадров в оригинале : 23,976 кадра/сек
Цветовое пространство : YUV
Субдискретизация насыщенности : 4:2:0
Битовая глубина : 8 бит
Тип развёртки : Прогрессивная
Бит/(Пиксели*Кадры) : 0.359
Заголовок : Encode by WiKi
Библиотека кодирования : x264 core 124 r2197+666+28 3970b70 tMod+MixAQ [[email protected]:2:0 X86]
Настройки программы : cabac=1 / ref=5 / deblock=1:-3:-3 / analyse=0x3:0x133 / me=umh / subme=11 / psy=1 / fade_compensate=0.00 / psy_rd=1.05:0.10 / mixed_ref=1 / me_range=64 / chroma_me=1 / trellis=2 / 8x8dct=1 / cqm=0 / deadzone=21,11 / fast_pskip=0 / chroma_qp_offset=-3 / threads=12 / sliced_threads=0 / nr=0 / decimate=1 / interlaced=0 / bluray_compat=0 / constrained_intra=0 / fgo=0 / bframes=8 / b_pyramid=2 / b_adapt=2 / b_bias=0 / direct=3 / weightb=1 / open_gop=0 / weightp=2 / keyint=250 / keyint_min=23 / scenecut=40 / intra_refresh=0 / rc_lookahead=80 / rc=2pass / mbtree=0 / bitrate=13500 / ratetol=1.0 / qcomp=0.75 / qpmin=0 / qpmax=69 / qpstep=4 / cplxblur=20.0 / qblur=0.5 / vbv_maxrate=50000 / vbv_bufsize=50000 / nal_hrd=none / ip_ratio=1.40 / pb_ratio=1.30 / aq=1 / aq-strength=0.80 / aq-sensitivity=10.00 / aq-ifactor=1.00 / aq-pfactor=1.00 / aq-bfactor=1.00 / aq2=0
Язык : English
Default : Да
Forced : Нет
Аудио #1
Идентификатор : 2
Формат : DTS
Формат/Информация : Digital Theater Systems
Режим : 16
Параметр Endianness формата : Big
Идентификатор кодека : A_DTS
Продолжительность : 2 ч. 5 м.
Вид битрейта : Постоянный
Битрейт : 1509 Кбит/сек
Каналы : 6 каналов
Расположение каналов : Front: L C R, Side: L R, LFE
Частота : 48,0 КГц
Битовая глубина : 16 бит
Метод сжатия : С потерями
Размер потока : 1,32 Гбайт (7%)
Заголовок : Двухголосый закадровый, Tycoon-Studio
Язык : Russian
Default : Да
Forced : Нет
Аудио #2
Идентификатор : 3
Формат : AC-3
Формат/Информация : Audio Coding 3
Расширение режима : CM (complete main)
Параметр Endianness формата : Big
Идентификатор кодека : A_AC3
Продолжительность : 2 ч. 5 м.
Вид битрейта : Постоянный
Битрейт : 448 Кбит/сек
Каналы : 6 каналов
Расположение каналов : Front: L C R, Side: L R, LFE
Частота : 48,0 КГц
Метод сжатия : С потерями
Размер потока : 402 Мбайт (2%)
Заголовок : Многоголосый закадровый, Киномания
Язык : Russian
Default : Нет
Forced : Нет
Аудио #3
Идентификатор : 4
Формат : DTS
Формат/Информация : Digital Theater Systems
Режим : 16
Параметр Endianness формата : Big
Идентификатор кодека : A_DTS
Продолжительность : 2 ч. 5 м.
Вид битрейта : Постоянный
Битрейт : 1509 Кбит/сек
Каналы : 6 каналов
Расположение каналов : Front: L C R, Side: L R, LFE
Частота : 48,0 КГц
Битовая глубина : 16 бит
Метод сжатия : С потерями
Размер потока : 1,32 Гбайт (7%)
Заголовок : Одноголосый закадровый, А.Гаврилов
Язык : Russian
Default : Нет
Forced : Нет
Аудио #4
Идентификатор : 5
Формат : DTS
Формат/Информация : Digital Theater Systems
Режим : 16
Параметр Endianness формата : Big
Идентификатор кодека : A_DTS
Продолжительность : 2 ч. 5 м.
Вид битрейта : Постоянный
Битрейт : 1509 Кбит/сек
Каналы : 6 каналов
Расположение каналов : Front: L C R, Side: L R, LFE
Частота : 48,0 КГц
Битовая глубина : 16 бит
Метод сжатия : С потерями
Размер потока : 1,32 Гбайт (7%)
Заголовок : Одноголосый закадровый, Д.Есарев
Язык : Russian
Default : Нет
Forced : Нет
Аудио #5
Идентификатор : 6
Формат : DTS
Формат/Информация : Digital Theater Systems
Режим : 16
Параметр Endianness формата : Big
Идентификатор кодека : A_DTS
Продолжительность : 2 ч. 5 м.
Вид битрейта : Постоянный
Битрейт : 755 Кбит/сек
Каналы : 6 каналов
Расположение каналов : Front: L C R, Side: L R, LFE
Частота : 48,0 КГц
Битовая глубина : 24 бит
Метод сжатия : С потерями
Размер потока : 678 Мбайт (4%)
Заголовок : Одноголосый закадровый, В.Королёв
Язык : Russian
Default : Нет
Forced : Нет
Аудио #6
Идентификатор : 7
Формат : DTS
Формат/Информация : Digital Theater Systems
Режим : 16
Параметр Endianness формата : Big
Идентификатор кодека : A_DTS
Продолжительность : 2 ч. 5 м.
Вид битрейта : Постоянный
Битрейт : 1509 Кбит/сек
Каналы : 6 каналов
Расположение каналов : Front: L C R, Side: L R, LFE
Частота : 48,0 КГц
Битовая глубина : 16 бит
Метод сжатия : С потерями
Размер потока : 1,32 Гбайт (7%)
Язык : English
Default : Нет
Forced : Нет
Аудио #7
Идентификатор : 8
Формат : AC-3
Формат/Информация : Audio Coding 3
Расширение режима : CM (complete main)
Параметр Endianness формата : Big
Идентификатор кодека : A_AC3
Продолжительность : 2 ч. 5 м.
Вид битрейта : Постоянный
Битрейт : 192 Кбит/сек
Каналы : 2 канала
Расположение каналов : Front: L R
Частота : 48,0 КГц
Метод сжатия : С потерями
Размер потока : 172 Мбайт (1%)
Заголовок : Commentary by Doug Liman and Simon Kinberg
Язык : English
Default : Нет
Forced : Нет
Текст #1
Идентификатор : 9
Формат : UTF-8
Идентификатор кодека : S_TEXT/UTF8
Идентификатор кодека/Информация : UTF-8 Plain Text
Язык : Russian
Default : Нет
Forced : Нет
Текст #2
Идентификатор : 10
Формат : UTF-8
Идентификатор кодека : S_TEXT/UTF8
Идентификатор кодека/Информация : UTF-8 Plain Text
Язык : English
Default : Нет
Forced : Нет
Меню
00:00:00.000 : en:00:00:00.000
00:10:07.773 : en:00:10:07.773
00:19:43.182 : en:00:19:43.182
00:28:37.382 : en:00:28:37.382
00:39:39.668 : en:00:39:39.668
00:50:11.133 : en:00:50:11.133
01:01:19.634 : en:01:01:19.634
01:12:23.547 : en:01:12:23.547
01:23:01.059 : en:01:23:01.059
01:34:05.264 : en:01:34:05.264
01:45:33.660 : en:01:45:33.660
01:56:58.053 : en:01:56:58.053

Скриншоты



If you like the topic, please click share to help develop our site.

To download the file disable ad blocking, and reload the page.

disable adblock How to disable ad blocking?

Download by magnet link 18.35 GB Download Torrent

Login using:

Similar topics



   
Current time is: 24-Mar 22:56 :: All times are UTC + 3