Информация о фильме
Название: 22 пули: Бессмертный
Оригинальное название: L'immortel
Год выхода: 2010
Жанр: боевик, драма, криминал
Режиссер: Ришар Берри
В ролях: Жан Рено, Кад Мерад, Жан-Пьер Дарруссен, Марина Фоис, Джои Старр, Ришар Берри, Венантино Венантини, Клоди Жансак, Жозефин Берри, Макс Бесетт де Малглейв
О фильме:
Шарль Матей — один из крестных отцов Марселя. Он решает отойти от дел и жить на покое, ведь ему немало лет, а за спиной слишком бурная жизнь. Но компаньоны против такого поворота событий. На него совершают жестокое покушение, не оставляя ему ни одного шанса.
Расстрелянного коллегами в упор, Шарля доставляют в больницу и извлекают из его тела 22 пули… Но каким-то чудом он остается жив. Теперь он жаждет отомстить своим некогда друзьям. И его месть будет не менее кровава и безжалостна.

Страна: Франция
Студия: Canal+ [fr], Ciné Cinémas, Europa Corp.
Продолжительность: 01:57:00
Перевод: Профессиональный (дублированный) R5 + Профессиональный (дублированный) Ren-TV + Профессиональный (многоголосый, закадровый) OPT
Файл
Качество: BDRip 720p
Формат: Matroska
Видео: 1280x546 at 24.000 fps, [email protected], ~4633 kbps avg
Aудио#1: Russian: 48 kHz, AC3, 3/2 (L,C,R,l,r) + LFE ch, ~384 kbps avg |Дубляж, R5|
Aудио#2: Russian: 48 kHz, AC3, 2/0 (L,R) ch, ~192 kbps avg |Дубляж, Ren-TV|
Aудио#3: Russian: 48 kHz, AC3, 2/0 (L,R) ch, ~192 kbps avg |Многоголосый закадровый, OPT|
Aудио#4: French: 48 kHz, AC3, 3/2 (L,C,R,l,r) + LFE ch, ~448 kbps avg
Субтитры: Russian, English
***Сохранены оригинальные главы как на Blu-ray.
***Релиз - msltel.

Знаете ли вы, что...

Фильм снят по мотивам романа Франца Оливье Гибера «Бессмертный» (L`Immortel, 2007).
Фильм основан на реальных событиях. Во Франции, в Марселе жил Жак Имбер (Jacques Imbert), известный как Жаки лё Ма («Сумасшедший») (Jacky Le Mat («le Fou»)) по прозвищу ле Мату (le Matou). 1 Февраля 1977 года в него было выпущено 22 пули, точнее, 7 пуль 11,43 и 15 картечин. Но фильм не является биографическим повествованием, поскольку все остальные события в нём вымышлены.

MediaInfo

Общее
Уникальный идентификатор : 207772712439112626272558251128596875397 (0x9C4F91A03D3541479D23C7301CFA4885)
Полное имя : 22 пули.2010.BDRip.720p by msltel.mkv
Формат : Matroska
Версия формата : Version 4 / Version 2
Размер файла : 4,88 Гбайт
Продолжительность : 1 ч. 57 м.
Общий поток : 5968 Кбит/сек
Название фильма : Rip by msltel
Дата кодирования : UTC 2017-09-17 07:36:48
Программа кодирования : mkvmerge v8.2.0 ('World of Adventure') 64bit
Библиотека кодирования : libebml v1.3.1 + libmatroska v1.4.2
Видео
Идентификатор : 1
Формат : AVC
Формат/Информация : Advanced Video Codec
Профиль формата : [email protected]
Параметр CABAC формата : Да
Параметр ReFrames формата : 9 кадров
Идентификатор кодека : V_MPEG4/ISO/AVC
Продолжительность : 1 ч. 57 м.
Битрейт : 4633 Кбит/сек
Ширина : 1280 пикселей
Высота : 546 пикселей
Соотношение сторон : 2,35:1
Режим частоты кадров : Постоянный
Частота кадров : 24,000 кадра/сек
Цветовое пространство : YUV
Субдискретизация насыщенности : 4:2:0
Битовая глубина : 8 бит
Тип развёртки : Прогрессивная
Бит/(Пиксели*Кадры) : 0.276
Размер потока : 3,79 Гбайт (78%)
Библиотека кодирования : x264 core 146 r2538 121396c
Настройки программы : cabac=1 / ref=9 / deblock=1:-3:-2 / analyse=0x3:0x113 / me=umh / subme=11 / psy=1 / psy_rd=1.00:0.15 / mixed_ref=1 / me_range=32 / chroma_me=1 / trellis=2 / 8x8dct=1 / cqm=0 / deadzone=21,11 / fast_pskip=0 / chroma_qp_offset=-3 / threads=6 / lookahead_threads=1 / sliced_threads=0 / nr=0 / decimate=1 / interlaced=0 / bluray_compat=0 / constrained_intra=0 / bframes=9 / b_pyramid=2 / b_adapt=2 / b_bias=0 / direct=1 / weightb=1 / open_gop=0 / weightp=2 / keyint=230 / keyint_min=23 / scenecut=40 / intra_refresh=0 / rc_lookahead=40 / rc=crf / mbtree=0 / crf=18.5 / qcomp=0.60 / qpmin=0 / qpmax=69 / qpstep=4 / vbv_maxrate=62500 / vbv_bufsize=78125 / crf_max=0.0 / nal_hrd=none / filler=0 / ip_ratio=1.40 / pb_ratio=1.30 / aq=1:1.00
Язык : French
Default : Да
Forced : Нет
Аудио #1
Идентификатор : 2
Формат : AC-3
Формат/Информация : Audio Coding 3
Расширение режима : CM (complete main)
Параметр Endianness формата : Big
Идентификатор кодека : A_AC3
Продолжительность : 1 ч. 57 м.
Вид битрейта : Постоянный
Битрейт : 384 Кбит/сек
Каналы : 6 каналов
Расположение каналов : Front: L C R, Side: L R, LFE
Частота : 48,0 КГц
Битовая глубина : 16 бит
Метод сжатия : С потерями
Размер потока : 321 Мбайт (6%)
Заголовок : DUB
Язык : Russian
Default : Да
Forced : Нет
Аудио #2
Идентификатор : 3
Формат : AC-3
Формат/Информация : Audio Coding 3
Расширение режима : CM (complete main)
Параметр Endianness формата : Big
Идентификатор кодека : A_AC3
Продолжительность : 1 ч. 57 м.
Вид битрейта : Постоянный
Битрейт : 192 Кбит/сек
Каналы : 2 канала
Расположение каналов : Front: L R
Частота : 48,0 КГц
Битовая глубина : 16 бит
Метод сжатия : С потерями
Размер потока : 161 Мбайт (3%)
Заголовок : DUB.Ren TV
Язык : Russian
Default : Нет
Forced : Нет
Аудио #3
Идентификатор : 4
Формат : AC-3
Формат/Информация : Audio Coding 3
Расширение режима : CM (complete main)
Параметр Endianness формата : Big
Идентификатор кодека : A_AC3
Продолжительность : 1 ч. 57 м.
Вид битрейта : Постоянный
Битрейт : 192 Кбит/сек
Каналы : 2 канала
Расположение каналов : Front: L R
Частота : 48,0 КГц
Битовая глубина : 16 бит
Метод сжатия : С потерями
Размер потока : 161 Мбайт (3%)
Заголовок : MVO.OPT
Язык : Russian
Default : Нет
Forced : Нет
Аудио #4
Идентификатор : 5
Формат : AC-3
Формат/Информация : Audio Coding 3
Расширение режима : CM (complete main)
Параметр Endianness формата : Big
Идентификатор кодека : A_AC3
Продолжительность : 1 ч. 57 м.
Вид битрейта : Постоянный
Битрейт : 448 Кбит/сек
Каналы : 6 каналов
Расположение каналов : Front: L C R, Side: L R, LFE
Частота : 48,0 КГц
Битовая глубина : 16 бит
Метод сжатия : С потерями
Размер потока : 375 Мбайт (8%)
Заголовок : original
Язык : French
Default : Нет
Forced : Нет
Текст #1
Идентификатор : 6
Формат : UTF-8
Идентификатор кодека : S_TEXT/UTF8
Идентификатор кодека/Информация : UTF-8 Plain Text
Заголовок : русские
Язык : Russian
Default : Нет
Forced : Нет
Текст #2
Идентификатор : 7
Формат : UTF-8
Идентификатор кодека : S_TEXT/UTF8
Идентификатор кодека/Информация : UTF-8 Plain Text
Заголовок : английские
Язык : English
Default : Нет
Forced : Нет
Меню
00:00:00.000 : :Chapter 01
00:00:58.200 : :Chapter 02
00:01:56.400 : :Chapter 03
00:02:54.600 : :Chapter 04
00:03:52.800 : :Chapter 05
00:04:51.000 : :Chapter 06
00:05:49.200 : :Chapter 07
00:06:47.400 : :Chapter 08
00:07:45.600 : :Chapter 09
00:08:43.800 : :Chapter 10
00:09:42.000 : :Chapter 11
00:10:40.200 : :Chapter 12
00:11:38.400 : :Chapter 13
00:12:36.600 : :Chapter 14
00:13:34.800 : :Chapter 15
00:14:33.000 : :Chapter 16
00:15:31.200 : :Chapter 17
00:16:29.400 : :Chapter 18
00:17:27.600 : :Chapter 19
00:18:25.800 : :Chapter 20
00:19:24.000 : :Chapter 21
00:20:22.200 : :Chapter 22
00:21:20.400 : :Chapter 23
00:22:18.600 : :Chapter 24
00:23:16.800 : :Chapter 25
00:24:15.000 : :Chapter 26
00:25:13.200 : :Chapter 27
00:26:11.400 : :Chapter 28
00:27:09.600 : :Chapter 29
00:28:07.800 : :Chapter 30
00:29:06.000 : :Chapter 31
00:30:04.200 : :Chapter 32
00:31:02.400 : :Chapter 33
00:32:00.600 : :Chapter 34
00:32:58.800 : :Chapter 35
00:33:57.000 : :Chapter 36
00:34:55.200 : :Chapter 37
00:35:53.400 : :Chapter 38
00:36:51.600 : :Chapter 39
00:37:49.800 : :Chapter 40
00:38:48.000 : :Chapter 41
00:39:46.200 : :Chapter 42
00:40:44.400 : :Chapter 43
00:41:42.600 : :Chapter 44
00:42:40.800 : :Chapter 45
00:43:39.000 : :Chapter 46
00:44:37.200 : :Chapter 47
00:45:35.399 : :Chapter 48
00:46:33.599 : :Chapter 49
00:47:31.799 : :Chapter 50
00:48:29.999 : :Chapter 51
00:49:28.199 : :Chapter 52
00:50:26.399 : :Chapter 53
00:51:24.599 : :Chapter 54
00:52:22.799 : :Chapter 55
00:53:20.999 : :Chapter 56
00:54:19.199 : :Chapter 57
00:55:17.399 : :Chapter 58
00:56:15.599 : :Chapter 59
00:57:13.799 : :Chapter 60
00:58:11.999 : :Chapter 61
00:59:10.199 : :Chapter 62
01:00:08.399 : :Chapter 63
01:01:06.599 : :Chapter 64
01:02:04.799 : :Chapter 65
01:03:02.999 : :Chapter 66
01:04:01.199 : :Chapter 67
01:04:59.399 : :Chapter 68
01:05:57.599 : :Chapter 69
01:06:55.799 : :Chapter 70
01:07:53.999 : :Chapter 71
01:08:52.199 : :Chapter 72
01:09:50.399 : :Chapter 73
01:10:48.599 : :Chapter 74
01:11:46.799 : :Chapter 75
01:12:44.999 : :Chapter 76
01:13:43.199 : :Chapter 77
01:14:41.399 : :Chapter 78
01:15:39.599 : :Chapter 79
01:16:37.799 : :Chapter 80
01:17:35.999 : :Chapter 81
01:18:34.199 : :Chapter 82
01:19:32.399 : :Chapter 83
01:20:30.599 : :Chapter 84
01:21:28.799 : :Chapter 85
01:22:26.999 : :Chapter 86
01:23:25.199 : :Chapter 87
01:24:23.399 : :Chapter 88
01:25:21.599 : :Chapter 89
01:26:19.799 : :Chapter 90
01:27:17.999 : :Chapter 91
01:28:16.199 : :Chapter 92
01:29:14.399 : :Chapter 93
01:30:12.599 : :Chapter 94
01:31:10.799 : :Chapter 95
01:32:08.999 : :Chapter 96
01:33:07.199 : :Chapter 97
01:34:05.399 : :Chapter 98
01:35:03.599 : :Chapter 99
01:36:01.799 : :Chapter 100
01:36:59.999 : :Chapter 101
01:37:58.199 : :Chapter 102
01:38:56.399 : :Chapter 103
01:39:54.599 : :Chapter 104
01:40:52.799 : :Chapter 105
01:41:50.999 : :Chapter 106
01:42:49.199 : :Chapter 107
01:43:47.399 : :Chapter 108
01:44:45.599 : :Chapter 109
01:45:43.799 : :Chapter 110
01:46:41.999 : :Chapter 111
01:47:40.199 : :Chapter 112
01:48:38.399 : :Chapter 113
01:49:36.599 : :Chapter 114
01:50:34.799 : :Chapter 115
01:51:32.999 : :Chapter 116
01:52:31.199 : :Chapter 117
01:53:29.399 : :Chapter 118
01:54:27.599 : :Chapter 119
01:55:25.799 : :Chapter 120
01:56:23.999 : :Chapter 121

Скриншоты


If you like the topic, please click share to help develop our site.

To download the file disable ad blocking, and reload the page.

disable adblock How to disable ad blocking?

Download by magnet link 4.88 GB Download Torrent

Login using:

Similar topics

22 пули: Бессмертный / L'immortel (2010) BDRip 1080p | D, P
 13.23 GB   0 | 0   24-Sep-17 14:30   0


   
Current time is: 24-Mar 22:28 :: All times are UTC + 3