Mr. Big / Defying Gravity
Жанр: Hard Rock
Носитель: CD
Страна-производитель диска (релиза): Italy
Год издания: 2017
Издатель (лейбл): Frontiers Records
Номер по каталогу: FR CD 805
Аудиокодек: FLAC (*.flac)
Тип рипа: image+.cue
Битрейт аудио: lossless
Продолжительность: 47:57
Источник (релизер): Boris1
Наличие сканов в содержимом раздачи: да
Треклист:
01. Open Your Eyes (4:01)
02. Defying Gravity (5:27)
03. Everybody Needs a Little Trouble (3:52)
04. Damn I'm in Love Again (2:55)
05. Mean to Me (3:28)
06. Nothin' Bad ('Bout Feelin' Good) (4:00)
07. Forever and Back (3:39)
08. She's All Coming Back to Me Now (4:21)
09. 1992 (5:00)
10. Nothing at All (4:12)
11. Be Kind (7:02)

Лог создания рипа

Exact Audio Copy V1.0 beta 3 from 29. August 2011
EAC extraction logfile from 23. September 2017, 20:04
Mr. Big / Defying Gravity
Used drive : PIONEER BD-RW BDR-TD03 Adapter: 0 ID: 1
Read mode : Secure
Utilize accurate stream : Yes
Defeat audio cache : Yes
Make use of C2 pointers : No
Read offset correction : 667
Overread into Lead-In and Lead-Out : No
Fill up missing offset samples with silence : Yes
Delete leading and trailing silent blocks : No
Null samples used in CRC calculations : Yes
Used interface : Native Win32 interface for Win NT & 2000
Used output format : User Defined Encoder
Selected bitrate : 768 kBit/s
Quality : High
Add ID3 tag : No
Command line compressor : C:\Program Files (x86)\Exact Audio Copy\FLAC\FLAC.EXE
Additional command line options : -6 -V -T "ARTIST=%artist%" -T "TITLE=%title%" -T "ALBUM=%albumtitle%" -T "DATE=%year%" -T "TRACKNUMBER=%tracknr%" -T "GENRE=%genre%" -T "COMMENT=%comment%" -T "BAND=%albuminterpret%" -T "ALBUMARTIST=%albuminterpret%" -T "COMPOSER=%composer%" %haslyrics%--tag-from-file=LYRICS="%lyricsfile%"%haslyrics% -T "DISCNUMBER=%cdnumber%" -T "TOTALDISCS=%totalcds%" -T "TOTALTRACKS=%numtracks%" %hascover%--picture="%coverfile%"%hascover% %source% -o %dest%
TOC of the extracted CD
Track | Start | Length | Start sector | End sector
---------------------------------------------------------
1 | 0:00.00 | 4:01.43 | 0 | 18117
2 | 4:01.43 | 5:27.68 | 18118 | 42710
3 | 9:29.36 | 3:52.09 | 42711 | 60119
4 | 13:21.45 | 2:55.63 | 60120 | 73307
5 | 16:17.33 | 3:28.30 | 73308 | 88937
6 | 19:45.63 | 4:00.69 | 88938 | 107006
7 | 23:46.57 | 3:39.57 | 107007 | 123488
8 | 27:26.39 | 4:21.29 | 123489 | 143092
9 | 31:47.68 | 5:00.32 | 143093 | 165624
10 | 36:48.25 | 4:12.46 | 165625 | 184570
11 | 41:00.71 | 7:02.46 | 184571 | 216266
Range status and errors
Selected range
Filename C:\Users\Deris\Desktop\kpnemo.eu\Mbig17\Mr. Big - Defying Gravity.wav
Peak level 100.0 %
Extraction speed 4.6 X
Range quality 100.0 %
Test CRC 5F97B7CD
Copy CRC 5F97B7CD
Copy OK
No errors occurred
AccurateRip summary
Track 1 accurately ripped (confidence 11) [CEA494AB] (AR v2)
Track 2 accurately ripped (confidence 11) [F2027B15] (AR v2)
Track 3 accurately ripped (confidence 11) [72730DCA] (AR v2)
Track 4 accurately ripped (confidence 11) [58527A53] (AR v2)
Track 5 accurately ripped (confidence 11) [2DF588D4] (AR v2)
Track 6 accurately ripped (confidence 11) [85EFBF25] (AR v2)
Track 7 accurately ripped (confidence 11) [73B0F19A] (AR v2)
Track 8 accurately ripped (confidence 11) [9AD91E6C] (AR v2)
Track 9 accurately ripped (confidence 11) [CC31E9D6] (AR v2)
Track 10 accurately ripped (confidence 11) [97F53395] (AR v2)
Track 11 accurately ripped (confidence 11) [AB65570A] (AR v2)
All tracks accurately ripped
End of status report
---- CUETools DB Plugin V2.1.3
[CTDB TOCID: weCjzkobsqZaoZUjh1vYMmALe9M-] found, Submit result: weCjzkobsqZaoZUjh1vYMmALe9M- has been confirmed
[c9c37717] (42/42) Accurately ripped
==== Log checksum 14F7999C8F006220BD3DFE4CBE493F0C1DF9BF0F9DB984C2B1EA790377BDD129 ====

Содержание индексной карты (.CUE)

REM GENRE "Hard Rock"
REM DATE 2017
REM DISCID 950B430B
REM COMMENT "ExactAudioCopy v1.0b3"
PERFORMER "Mr. Big"
TITLE "Defying Gravity"
FILE "Mr. Big - Defying Gravity.flac" WAVE
TRACK 01 AUDIO
TITLE "Open Your Eyes"
PERFORMER "Mr. Big"
INDEX 01 00:00:00
TRACK 02 AUDIO
TITLE "Defying Gravity"
PERFORMER "Mr. Big"
INDEX 01 04:01:43
TRACK 03 AUDIO
TITLE "Everybody Needs a Little Trouble"
PERFORMER "Mr. Big"
INDEX 01 09:29:36
TRACK 04 AUDIO
TITLE "Damn I'm in Love Again"
PERFORMER "Mr. Big"
INDEX 01 13:21:45
TRACK 05 AUDIO
TITLE "Mean to Me"
PERFORMER "Mr. Big"
INDEX 01 16:17:33
TRACK 06 AUDIO
TITLE "Nothin' Bad ('Bout Feelin' Good)"
PERFORMER "Mr. Big"
INDEX 01 19:45:63
TRACK 07 AUDIO
TITLE "Forever and Back"
PERFORMER "Mr. Big"
INDEX 01 23:46:57
TRACK 08 AUDIO
TITLE "She's All Coming Back to Me Now"
PERFORMER "Mr. Big"
INDEX 01 27:26:39
TRACK 09 AUDIO
TITLE "1992"
PERFORMER "Mr. Big"
INDEX 01 31:47:68
TRACK 10 AUDIO
TITLE "Nothing at All"
PERFORMER "Mr. Big"
INDEX 01 36:48:25
TRACK 11 AUDIO
TITLE "Be Kind"
PERFORMER "Mr. Big"
INDEX 01 41:00:71

DR Log

foobar2000 1.3.13 / Замер динамического диапазона (DR) 1.1.1
Дата отчёта: 2017-09-23 20:33:38
--------------------------------------------------------------------------------
Анализ: Mr. Big / Defying Gravity
--------------------------------------------------------------------------------
DR Пики RMS Продолжительность трека
--------------------------------------------------------------------------------
DR6 0.00 дБ -7.48 дБ 4:02 01-Open Your Eyes
DR6 0.00 дБ -7.67 дБ 5:28 02-Defying Gravity
DR6 0.00 дБ -7.70 дБ 3:52 03-Everybody Needs a Little Trouble
DR7 0.00 дБ -8.19 дБ 2:56 04-Damn I'm in Love Again
DR5 0.00 дБ -7.13 дБ 3:28 05-Mean to Me
DR6 0.00 дБ -8.04 дБ 4:01 06-Nothin' Bad ('Bout Feelin' Good)
DR6 0.00 дБ -7.53 дБ 3:40 07-Forever and Back
DR7 0.00 дБ -7.63 дБ 4:21 08-She's All Coming Back to Me Now
DR6 0.00 дБ -7.31 дБ 5:00 09-1992
DR6 0.00 дБ -7.39 дБ 4:13 10-Nothing at All
DR6 0.00 дБ -7.09 дБ 7:03 11-Be Kind
--------------------------------------------------------------------------------
Количество треков: 11
Реальные значения DR: DR6
Частота: 44100 Гц
Каналов: 2
Разрядность: 16
Битрейт: 959 кбит/с
Кодек: FLAC
================================================================================

Состав

Eric Martin - lead vocals
Paul Gilbert - lead guitar, backing vocals
Billy Sheehan - bass guitar, backing vocals
Matt Starr - drums on most tracks

If you like the topic, please click share to help develop our site.

To download the file disable ad blocking, and reload the page.

disable adblock How to disable ad blocking?

Download by magnet link 486 MB Download Torrent

Login using:

Similar topics



   
Current time is: 20-Jul 10:16 :: All times are UTC + 3