Chris Norman / Don't Knock The Rock
Жанр: Pop Rock, Soft Rock
Носитель: CD
Год издания: 2017
Издатель (лейбл): Solo Sound Records
Номер по каталогу: CD147022
Страна исполнителя (группы): UK
Аудиокодек: FLAC (*.flac)
Тип рипа: image+.cue
Битрейт аудио: lossless
Продолжительность: 47:02
Источник (релизер): rd
Наличие сканов в содержимом раздачи: да
Треклист:
01. Don't Knock the Rock [2:07]
02. Crawling up the Wall [3:18]
03. Sun Is Rising [4:15]
04. You Are the Light [3:43]
05. Sweet Virginia [3:08]
06. Good, Good Loving [3:02]
07. Losing You [3:49]
08. If We Had Wings [3:47]
09. One Night of Love [3:22]
10. Resurrection [3:30]
11. Chasing After Starlight [3:22]
12. Straight to My Heart [3:33]
13. Suicide Street [3:43]
14. Little Butterfly [2:24]
http://www.chris-norman.co.uk/

Лог создания рипа

Exact Audio Copy V1.1 from 23. June 2015
EAC extraction logfile from 25. September 2017, 22:42
Chris Norman / Don'T Knock the Rock
Used drive : TSSTcorpDVDWBD SH-B123L Adapter: 0 ID: 4
Read mode : Secure
Utilize accurate stream : Yes
Defeat audio cache : Yes
Make use of C2 pointers : No
Read offset correction : 6
Overread into Lead-In and Lead-Out : No
Fill up missing offset samples with silence : Yes
Delete leading and trailing silent blocks : No
Null samples used in CRC calculations : Yes
Used interface : Installed external ASPI interface
Used output format : User Defined Encoder
Selected bitrate : 768 kBit/s
Quality : High
Add ID3 tag : No
Command line compressor : C:\Program Files (x86)\Exact Audio Copy\FLAC\FLAC.EXE
Additional command line options : -6 -V -T "ARTIST=%artist%" -T "TITLE=%title%" -T "ALBUM=%albumtitle%" -T "DATE=%year%" -T "TRACKNUMBER=%tracknr%" -T "GENRE=%genre%" -T "COMMENT=%comment%" -T "BAND=%albuminterpret%" -T "ALBUMARTIST=%albuminterpret%" -T "COMPOSER=%composer%" %haslyrics%--tag-from-file=LYRICS="%lyricsfile%"%haslyrics% -T "DISCNUMBER=%cdnumber%" -T "TOTALDISCS=%totalcds%" -T "TOTALTRACKS=%numtracks%" %hascover%--picture="%coverfile%"%hascover% %source% -o %dest%
TOC of the extracted CD
Track | Start | Length | Start sector | End sector
---------------------------------------------------------
1 | 0:00.00 | 2:06.46 | 0 | 9495
2 | 2:06.46 | 3:18.17 | 9496 | 24362
3 | 5:24.63 | 4:15.21 | 24363 | 43508
4 | 9:40.09 | 3:42.49 | 43509 | 60207
5 | 13:22.58 | 3:08.25 | 60208 | 74332
6 | 16:31.08 | 3:02.00 | 74333 | 87982
7 | 19:33.08 | 3:48.65 | 87983 | 105147
8 | 23:21.73 | 3:46.56 | 105148 | 122153
9 | 27:08.54 | 3:22.01 | 122154 | 137304
10 | 30:30.55 | 3:29.39 | 137305 | 153018
11 | 34:00.19 | 3:21.65 | 153019 | 168158
12 | 37:22.09 | 3:33.17 | 168159 | 184150
13 | 40:55.26 | 3:42.49 | 184151 | 200849
14 | 44:38.00 | 2:24.17 | 200850 | 211666
Range status and errors
Selected range
Filename E:\MUSIC\Chris Norman - Don'T Knock the Rock.wav
Peak level 97.1 %
Extraction speed 3.4 X
Range quality 100.0 %
Test CRC CB4F40E4
Copy CRC CB4F40E4
Copy OK
No errors occurred
AccurateRip summary
Track 1 not present in database
Track 2 not present in database
Track 3 not present in database
Track 4 not present in database
Track 5 not present in database
Track 6 not present in database
Track 7 not present in database
Track 8 not present in database
Track 9 not present in database
Track 10 not present in database
Track 11 not present in database
Track 12 not present in database
Track 13 not present in database
Track 14 not present in database
None of the tracks are present in the AccurateRip database
End of status report
==== Log checksum 1D75B05ED16FEBBFD067B57F78976597FEE10AAAB5E02B33644E3BFAECC84D99 ====

Содержание индексной карты (.CUE)

REM GENRE Rock
REM DATE 2017
REM DISCID AC0B060E
REM COMMENT "ExactAudioCopy v1.1"
PERFORMER "Chris Norman"
TITLE "Don'T Knock the Rock"
FILE "Chris Norman - Don'T Knock the Rock.flac" WAVE
TRACK 01 AUDIO
TITLE "Don't Knock the Rock"
PERFORMER "Chris Norman"
INDEX 01 00:00:00
TRACK 02 AUDIO
TITLE "Crawling up the Wall"
PERFORMER "Chris Norman"
INDEX 01 02:06:46
TRACK 03 AUDIO
TITLE "Sun Is Rising"
PERFORMER "Chris Norman"
INDEX 00 05:24:18
INDEX 01 05:24:63
TRACK 04 AUDIO
TITLE "You Are the Light"
PERFORMER "Chris Norman"
INDEX 00 09:39:70
INDEX 01 09:40:09
TRACK 05 AUDIO
TITLE "Sweet Virginia"
PERFORMER "Chris Norman"
INDEX 00 13:22:36
INDEX 01 13:22:58
TRACK 06 AUDIO
TITLE "Good, Good Loving"
PERFORMER "Chris Norman"
INDEX 01 16:31:08
TRACK 07 AUDIO
TITLE "Losing You"
PERFORMER "Chris Norman"
INDEX 00 19:32:61
INDEX 01 19:33:08
TRACK 08 AUDIO
TITLE "If We Had Wings"
PERFORMER "Chris Norman"
INDEX 00 23:21:71
INDEX 01 23:21:73
TRACK 09 AUDIO
TITLE "One Night of Love"
PERFORMER "Chris Norman"
INDEX 00 27:08:23
INDEX 01 27:08:54
TRACK 10 AUDIO
TITLE "Resurrection"
PERFORMER "Chris Norman"
INDEX 01 30:30:55
TRACK 11 AUDIO
TITLE "Chasing After Starlight"
PERFORMER "Chris Norman"
INDEX 00 33:59:66
INDEX 01 34:00:19
TRACK 12 AUDIO
TITLE "Straight to My Heart"
PERFORMER "Chris Norman"
INDEX 00 37:21:60
INDEX 01 37:22:09
TRACK 13 AUDIO
TITLE "Suicide Street"
PERFORMER "Chris Norman"
INDEX 01 40:55:26
TRACK 14 AUDIO
TITLE "Little Butterfly"
PERFORMER "Chris Norman"
INDEX 00 44:37:24
INDEX 01 44:38:00

Об исполнителе (группе)

Famed for fronting huge 70’s hit band Smokie, Chris Norman has gone on to carve a successful solo career since leaving the band in 1986, when his first single ‘Midnight Lady’ became a massive hit throughout Europe including holding the German No.1 slot for 6 weeks!
Now, with over 20 solo albums to his name, he’s back with a brand new collection and sounding better than ever. It is an eclectic mix of new and original recordings that have that his unmistakable sound. The tracks are hallmarks of a true singer-songwriter with timeless melodies and memorable harmonies that soar. The single ‘Crawling Up The Wall’ is an instant classic highlighting Chris’ unique and instantly recognisable voice. Chris Norman was destined for show business after coming from a family with connections reaching back two generations. His Grandparents toured their own concert party around England during the First World War and their daughter Pat (Chris’s mother) joined a dance troupe when she left school. Pip Norman, (Chris’s Dad) was part of a dancing/comedy act called ‘The Four Jokers’ and worked all over Europe in the 1930s/40s and had a British Royal Variety Performance to their credit.
He got his first guitar at the age of seven and his early musical influences were Elvis Presley, Little Richard, Buddy Holly and Lonnie Donegan. Later the 60’s beat groups, in particular The Beatles, and the folk singer Bob Dylan, were a huge influence on Chris. He formed a band at school and played all over the UK in the late 60s and early seventies.
By 1974 the group had developed their own sound reflecting their close three part harmonies and Chris’s distinctive vocal sound wrapped up in a guitar rock sound, a sort of mixture between Crosby, Stills & Nash and Creedence Clearwater Revival. The band changed their name to ‘Smokie’ and their first album ‘Pass it Around’ was released in 1975 on Micky Most’s RAK records. Smokie had started as an album orientated rock act and their many live experiences had given Chris and Smokie a good grounding in all the tricks of the Rock 'n’ Roll trade. Chris remembers: “We weren't so much interested in pop singles at first. That's why the back cover of our first LP ‘PASS IT AROUND’ was designed in a way that made us look kind of folk/rocky instead of a Glamrock band.”
Nevertheless, by the summer of that year they had their first hit single with ‘If you think you know how to love me’. This was followed by a string of 15 hit singles including ‘Living next door to Alice’, ‘I’ll meet you at Midnight’, ‘Lay back in the arms of Someone’, etc. Plus the very successful duet with Suzi Quatro, ‘Stumblin’ In’ which gave Chris his first taste of success outside the group.
Following his departure from the group and a string of successful solo hits, in 1994 Chris was awarded ‘International video Star of the Year’ by CMT Europe for the videos ‘Jealous Heart’, ‘The Growing Years’ and ‘Red Hot Screaming Love’.
Over the last 20 years Chris has been busy touring with his live band and releasing a new album every couple of years.

If you like the topic, please click share to help develop our site.

To download the file disable ad blocking, and reload the page.

disable adblock How to disable ad blocking?

Download by magnet link 358 MB Download Torrent

Login using:

Similar topics



   
Current time is: 20-Jul 10:43 :: All times are UTC + 3